<?xml version="1.0" standalone="no"?>
<!DOCTYPE svg PUBLIC "-//W3C//DTD SVG 1.1//EN" "http://www.w3.org/Graphics/SVG/1.1/DTD/svg11.dtd" >
<svg xmlns="http://www.w3.org/2000/svg">
<metadata></metadata>
<defs>
<font id="pt_serif_captionregular" horiz-adv-x="600" >
<font-face units-per-em="1000" ascent="778" descent="-222" />
<missing-glyph horiz-adv-x="274" />
<glyph unicode="&#xfb01;" horiz-adv-x="676" d="M635 0h-253v50h74v425h-231v-425h83v-50h-262v50h74v425h-85v50h85v16q0 65 22.5 106t59 64t83 31t94.5 8q22 0 49.5 -5t53 -12.5t47 -16t32.5 -16.5v-84h-105v70q-17 5 -34 7.5t-35 2.5q-30 0 -59.5 -7.5t-52 -25t-36.5 -46t-14 -70.5v-22h336v-475h74v-50z" />
<glyph unicode="&#xfb02;" horiz-adv-x="680" d="M460 690q-39 6 -74 6q-75 0 -118 -31t-43 -109v-31h128v-50h-128v-425h91v-50h-270v50h74v425h-85v50h85v26q0 61 19.5 100t54 61t82.5 30t104 8h185v-700h74v-50h-253v50h74v640z" />
<glyph horiz-adv-x="1000" />
<glyph horiz-adv-x="1000" />
<glyph unicode="&#xd;" horiz-adv-x="274" />
<glyph unicode=" "  horiz-adv-x="274" />
<glyph unicode="&#x09;" horiz-adv-x="274" />
<glyph unicode="&#xa0;" horiz-adv-x="274" />
<glyph unicode="!" horiz-adv-x="368" d="M195 218l-38 177v305h105v-305l-37 -177h-30zM133 58q0 31 21.5 49t55.5 18q35 0 57 -18t22 -49q0 -30 -22 -48t-57 -18q-34 0 -55.5 18t-21.5 48z" />
<glyph unicode="&#x22;" horiz-adv-x="428" d="M97 503zM234 700h98l-27 -197h-44zM97 700h98l-27 -197h-44z" />
<glyph unicode="#" d="M345 233h-160l-46 -175h-59l46 175h-90l17 47h85l40 149h-86l17 47h83l44 166h59l-44 -166h159l45 166h59l-45 -166h90l-20 -47h-83l-40 -149h87l-21 -47h-78l-46 -175h-59zM199 280h158l40 149h-160z" />
<glyph unicode="$" d="M267 -12q-34 0 -64 6t-54.5 15.5t-43.5 20t-31 19.5v139h72v-100l20 -26q18 -9 39 -15t62 -7v284q-1 0 -8 2.5t-34 13.5q-33 13 -63 29t-53.5 38.5t-37.5 53t-14 72.5q0 36 15.5 67t43.5 55t66.5 38.5t84.5 17.5v49h60v-49q54 -3 92.5 -12.5t68.5 -22.5v-131h-72v82 l-20 20q-35 12 -69 12v-266q48 -20 88 -39t69 -43t45 -56.5t16 -78.5q0 -74 -57.5 -124t-160.5 -61v-61h-60v58zM440 168q0 26 -9 46t-24.5 35.5t-36.5 28t-45 22.5v-254q51 12 83 43t32 79zM162 550q0 -52 30.5 -82t76.5 -52v242q-50 -5 -78.5 -35.5t-28.5 -72.5z" />
<glyph unicode="%" horiz-adv-x="908" d="M58 0zM757 714l41 -38l-657 -686l-39 39zM58 542q0 39 15 70t41 53.5t62.5 34.5t78.5 12q43 0 79 -10.5t62 -31.5t40.5 -53t14.5 -75q0 -39 -14.5 -70.5t-40.5 -53.5t-62 -34t-79 -12q-42 0 -78.5 10.5t-62.5 31.5t-41 53t-15 75zM154 542q0 -60 26 -96t75 -36 q100 0 100 132t-100 132q-49 0 -75 -33t-26 -99zM456 159q0 39 15 70t41 53.5t62.5 34.5t78.5 12q43 0 79 -10.5t62 -31.5t40.5 -53t14.5 -75q0 -39 -14.5 -70.5t-40.5 -53.5t-62 -34t-79 -12q-42 0 -78.5 10.5t-62.5 31.5t-41 53t-15 75zM552 159q0 -60 26 -96t75 -36 q100 0 100 132t-100 132q-49 0 -75 -33t-26 -99z" />
<glyph unicode="&#x26;" horiz-adv-x="977" d="M605 123q-34 27 -73.5 63.5t-76.5 74t-68 72.5t-48 58q-47 -41 -69 -80.5t-22 -91.5q0 -38 14 -70.5t39 -56t60 -37t76 -13.5q49 0 92 20t76 61zM319 583q0 -18 8 -38t20.5 -40.5t28 -39t29.5 -33.5q41 30 63 67.5t22 94.5q0 32 -21 54t-65 22q-24 0 -40.5 -7.5t-26 -20 t-14 -28t-4.5 -31.5zM780 0q-23 14 -58.5 34.5t-77.5 55.5q-15 -18 -39 -36t-55.5 -33t-71 -24t-84.5 -9q-61 0 -109.5 16.5t-82 43.5t-51.5 62t-18 73q0 49 20 88t47.5 69t58 50.5t51.5 33.5q-32 32 -54.5 74.5t-22.5 79.5q0 25 11 49.5t33 43t54 30t73 11.5q75 0 121 -29 t46 -83q0 -33 -13 -61t-33 -52t-45.5 -44t-50.5 -37q46 -51 106 -104.5t127 -107.5q8 10 20 32.5t23 53.5t19 67.5t8 74.5v14t-1 14h-66v50h230v-50h-75q-10 -58 -25 -106t-31.5 -84.5t-32 -62t-24.5 -37.5q42 -31 83 -58t91 -52h61v-50h-162z" />
<glyph unicode="'" horiz-adv-x="250" d="M97 700h98l-27 -197h-44z" />
<glyph unicode="(" horiz-adv-x="389" d="M341 -210q-57 36 -107 80t-87 98.5t-58.5 122.5t-21.5 152q0 82 22 148.5t59.5 121.5t88 101t107.5 88l28 -30q-45 -43 -82.5 -86.5t-64.5 -93.5t-42 -111t-15 -138q0 -74 16 -135.5t43.5 -112.5t64 -93.5t78.5 -78.5z" />
<glyph unicode=")" horiz-adv-x="389" d="M20 -180q42 36 78.5 80.5t64 98t43 117t15.5 137.5q0 77 -15 136t-42 108t-64.5 90.5t-82.5 84.5l28 30q58 -38 108.5 -82.5t88 -98.5t59 -120t21.5 -148q0 -83 -20.5 -151.5t-57.5 -125.5t-87 -103t-110 -83z" />
<glyph unicode="*" horiz-adv-x="522" d="M461 505l-62 -108l-103 113l16 28zM398 693l62 -110l-147 -27l-18 25zM195 743h128l-47 -148h-35zM56 583l68 110l100 -111l-16 -26zM123 397l-67 108l153 35l15 -29zM323 349h-128l46 148h35z" />
<glyph unicode="+" d="M68 371h202v209h60v-209h202v-54h-202v-215h-60v215h-202v54z" />
<glyph unicode="," horiz-adv-x="319" d="M61 -144q21 7 38.5 21.5t31 32.5t21 39t7.5 42v9h-70q-10 16 -14 30t-4 28q0 17 5 32t13 30h126q10 -25 14 -48.5t4 -45.5q0 -40 -12.5 -74t-34 -60.5t-49 -44.5t-57.5 -26z" />
<glyph unicode="-" horiz-adv-x="475" d="M80 314h316v-64h-316v64z" />
<glyph unicode="." horiz-adv-x="314" d="M80 58q0 31 21 49t56 18t57 -18t22 -49q0 -30 -22 -48t-57 -18t-56 18t-21 48z" />
<glyph unicode="/" horiz-adv-x="386" d="M366 713l49 -19l-410 -824l-48 20z" />
<glyph unicode="0" d="M37 350q0 180 68.5 271t194.5 91q135 0 199 -89.5t64 -272.5q0 -180 -69 -271t-201 -91q-69 0 -117.5 24.5t-79 71t-45 113.5t-14.5 153zM149 350q0 -72 7.5 -131t25 -101t44.5 -65t66 -23q88 0 123.5 77.5t35.5 242.5q0 72 -6.5 131t-24 101t-46.5 65t-74 23 q-83 0 -117 -77.5t-34 -242.5z" />
<glyph unicode="1" d="M479 0h-331v64h114v564l-118 -62l-27 49l145 85h105v-636h112v-64z" />
<glyph unicode="2" d="M170 533h-96v111q39 30 94 48t121 18q56 0 97 -14t67.5 -37.5t39 -54.5t12.5 -66q0 -63 -31 -126t-78 -119t-103 -103t-107 -80l-22 -14q-8 -5 -16 -10.5t-11 -7.5v-4l65 6h232l20 20v96h64v-196h-454v84q26 15 60.5 40t71.5 58t73 72.5t64 83t45.5 89t17.5 91.5 q0 29 -8.5 54t-25 44t-41 29.5t-55.5 10.5q-33 0 -54.5 -5t-41.5 -13v-105z" />
<glyph unicode="3" d="M271 44q37 0 67 11.5t52 31.5t34 46.5t12 57.5q0 36 -13 63.5t-35.5 46t-52.5 28t-64 9.5h-71v68l225 216v4l-60 -6h-201l-20 -20v-80h-64v180h432v-78l-188 -176q-12 -11 -23 -21q-9 -8 -16.5 -15t-9.5 -8v-2q1 0 7 1t13 3q8 2 18 3q53 -2 96 -15.5t74 -39t47.5 -62 t16.5 -84.5q0 -50 -21.5 -90t-58.5 -68t-87 -43t-107 -15q-26 0 -55.5 4t-57.5 10.5t-52.5 16t-40.5 21.5v118h96v-89q14 -10 43.5 -18.5t64.5 -8.5z" />
<glyph unicode="4" d="M548 0h-294v64h103v129h-343v64l343 443h105v-443h124v-64h-124v-129h86v-64zM357 549l7 72h-3l-39 -72l-208 -266l-37 -33l72 7h208v292z" />
<glyph unicode="5" d="M438 750h64v-130h-305v-190h64q56 0 103 -14t80.5 -40t52 -65t18.5 -88q0 -58 -22.5 -101.5t-59.5 -73t-85.5 -44t-99.5 -14.5q-46 0 -90 10t-76 33v107h96v-87q11 -2 30 -5.5t39 -3.5q37 0 67 11.5t51.5 32.5t33 49.5t11.5 63.5q0 40 -16 68.5t-44 47t-65.5 27 t-80.5 8.5h-71v348h285l20 20v30z" />
<glyph unicode="6" d="M565 212q0 -47 -18 -88t-50.5 -71t-78.5 -47.5t-103 -17.5q-63 0 -112 19.5t-82 54.5t-50 83t-17 105q0 94 34.5 171t92.5 135t133 96t156 55l14 -50q-52 -15 -104.5 -42t-96 -66t-74 -90t-37.5 -114q9 13 25.5 26t38.5 23t49.5 16.5t58.5 6.5q48 0 89 -14t70 -40 t45.5 -64t16.5 -87zM453 203q0 72 -37.5 116t-105.5 44q-53 0 -89 -23t-53 -52q-2 -14 -2 -33v-30q0 -32 9.5 -65.5t28.5 -61t48.5 -45.5t68.5 -18q35 0 60 14.5t41 38.5t23.5 54t7.5 61z" />
<glyph unicode="7" d="M135 519h-64v181h470v-79l-251 -621h-106l276 578l34 47l-57 -5h-282l-20 -20v-81z" />
<glyph unicode="8" d="M55 157q0 34 12.5 64.5t35 56t52.5 46t65 35.5q-63 29 -99.5 70t-36.5 107q0 39 15.5 71t44.5 55.5t70.5 36.5t92.5 13q100 0 155.5 -44.5t55.5 -114.5q0 -58 -37.5 -106.5t-102.5 -72.5q79 -38 124.5 -85.5t45.5 -117.5q0 -38 -16.5 -71t-49 -58t-79.5 -39.5t-108 -14.5 t-106 14t-75 37t-44.5 54t-14.5 64zM445 153q0 34 -15 61t-40.5 48.5t-58 39.5t-68.5 33q-31 -17 -52 -37.5t-33.5 -43t-17.5 -44.5t-5 -41q0 -24 8 -48t25.5 -43t46 -31t69.5 -12q35 0 61.5 10.5t44 27t26.5 38t9 42.5zM187 550q0 -30 12 -53.5t32.5 -41.5t47.5 -33t57 -28 q47 34 64.5 67.5t17.5 74.5q0 62 -29.5 95.5t-83.5 33.5q-30 0 -52 -10t-36.5 -26t-22 -36.5t-7.5 -42.5z" />
<glyph unicode="9" d="M52 487q0 49 17 90t49 71t79 47t107 17q66 0 113.5 -19.5t79 -54.5t46.5 -85.5t15 -111.5q0 -93 -32 -171.5t-87 -138t-128.5 -96t-157.5 -45.5l-14 50q132 26 207.5 106t93.5 193q-26 -24 -61.5 -40.5t-94.5 -16.5q-51 0 -93.5 13.5t-73 40t-48 64.5t-17.5 87zM164 488 q0 -29 10 -56.5t28.5 -48.5t45 -34t59.5 -13q52 0 87 16t52 41q2 13 2.5 32t0.5 31q0 36 -8 73.5t-26 67.5t-46.5 49t-68.5 19q-67 0 -101.5 -47.5t-34.5 -129.5z" />
<glyph unicode=":" horiz-adv-x="368" d="M134 0zM134 441q0 31 21 49t56 18t57 -18t22 -49q0 -30 -22 -48t-57 -18t-56 18t-21 48zM134 58q0 31 21 49t56 18t57 -18t22 -49q0 -30 -22 -48t-57 -18t-56 18t-21 48z" />
<glyph unicode=";" horiz-adv-x="373" d="M119 0zM138 441q0 31 21 49t56 18t57 -18t22 -49q0 -30 -22 -48t-57 -18t-56 18t-21 48zM119 -144q21 7 38.5 21.5t31 32.5t21 39t7.5 42v9h-70q-10 16 -14 30t-4 28q0 17 5 32t13 30h126q10 -25 14 -48.5t4 -45.5q0 -40 -12.5 -74t-34 -60.5t-49 -44.5t-57.5 -26z" />
<glyph unicode="&#x3c;" d="M52 324v31l431 235l30 -59l-351 -186l357 -186l-37 -56z" />
<glyph unicode="=" d="M47 452h505v-54h-505v54zM47 290h505v-54h-505v54z" />
<glyph unicode="&#x3e;" d="M551 369v-31l-432 -235l-33 55l354 194l-357 183l37 55z" />
<glyph unicode="?" horiz-adv-x="531" d="M174 548h-96v121q42 23 88 33t100 10q118 0 173 -53.5t55 -148.5q0 -44 -15.5 -82t-45 -68t-71.5 -50.5t-96 -27.5v-100h-64v142q45 9 78.5 23t56 36t34 53.5t11.5 75.5q0 27 -7 53.5t-22 47.5t-38.5 34t-56.5 13q-35 0 -54.5 -5.5t-29.5 -13.5v-93zM155 58q0 31 21 49 t56 18t57 -18t22 -49q0 -30 -22 -48t-57 -18t-56 18t-21 48z" />
<glyph unicode="@" horiz-adv-x="1111" d="M792 490l-57 -285v-148h13q45 0 83.5 19.5t66 55t43.5 85t16 109.5q0 76 -30.5 137.5t-82.5 105t-122.5 66.5t-149.5 23q-95 0 -172 -32t-131.5 -88.5t-84.5 -132.5t-30 -163q0 -89 35 -157.5t93 -115t132.5 -71t153.5 -24.5q32 0 73.5 7t75.5 21l18 -46q-40 -20 -87 -28 t-104 -8q-51 0 -105 11.5t-104.5 34.5t-95 58t-77.5 81t-52.5 104t-19.5 127q0 109 39 197t105.5 150t155 95.5t187.5 33.5q94 0 175.5 -26.5t141 -76t93.5 -121t34 -162.5q0 -59 -16.5 -117.5t-53 -104.5t-94.5 -74.5t-141 -28.5q-17 0 -33.5 1.5t-35.5 3.5v176h-6 q-13 -32 -34.5 -63t-49.5 -56.5t-59.5 -41t-64.5 -15.5q-67 0 -103.5 41.5t-36.5 110.5q0 63 23.5 124t64 109t94 77t113.5 29q40 0 65 -6.5t51 -17.5zM685 425q-17 10 -36 15t-46 5q-43 0 -80.5 -26.5t-65.5 -67t-44.5 -89.5t-16.5 -93q0 -48 17 -74t62 -26q21 0 45.5 18 t48.5 47.5t46.5 66t40.5 74.5z" />
<glyph unicode="A" horiz-adv-x="755" d="M245 0h-245v56h78l259 644h106l237 -644h75v-56h-286v56h89l-65 176h-266l-68 -176h86v-56zM250 288h226l-82 231l-25 106h-4l-29 -108z" />
<glyph unicode="B" horiz-adv-x="690" d="M32 0v56h91v588h-91v56h131q21 0 40 1t40 2t45.5 2t54.5 1q44 0 90 -6.5t83 -24.5t60.5 -50.5t23.5 -84.5q0 -27 -9.5 -53t-28 -48t-46.5 -39t-65 -25v-4q33 -5 66 -17t59.5 -32.5t42.5 -50.5t16 -72q0 -54 -26.5 -93t-69.5 -64t-97.5 -36.5t-110.5 -11.5q-39 0 -87.5 3 t-93.5 3h-118zM339 50q39 0 72.5 10.5t57.5 29.5t37.5 45.5t13.5 58.5q0 40 -16.5 66.5t-44 42t-64.5 21.5t-78 6h-82v-271q15 -4 36.5 -6.5t67.5 -2.5zM289 382q20 0 44.5 1.5t41.5 3.5q51 16 82 51.5t31 83.5q0 66 -42 97t-114 31q-34 0 -57.5 -1.5t-39.5 -3.5v-263h54z " />
<glyph unicode="C" horiz-adv-x="698" d="M569 184h64v-157q-31 -17 -82 -28t-101 -11q-92 0 -165 21t-123.5 65.5t-77.5 112.5t-27 163q0 98 30 166.5t81 112t118 63.5t141 20q36 0 65 -2.5t52.5 -7.5t43.5 -12t39 -15v-171h-64v105l-14 20q-11 5 -34.5 12t-75.5 7q-54 0 -101 -17t-81.5 -53t-54.5 -92.5 t-20 -135.5q0 -143 72.5 -220.5t203.5 -77.5q36 0 60.5 5.5t36.5 14.5l14 19v93z" />
<glyph unicode="D" horiz-adv-x="782" d="M32 0v56h91v588h-91v56h123q19 0 44.5 1t52.5 2.5t51.5 3t41.5 1.5q93 0 164 -23.5t119 -68t72.5 -109.5t24.5 -148q0 -80 -23 -147t-72 -116.5t-125.5 -77t-182.5 -27.5q-16 0 -37 1.5t-44.5 3t-47.5 3t-45 1.5h-116zM330 652q-28 0 -54 -1t-41 -4v-596q6 -1 20 -1.5 t30.5 -1t31.5 -1t21 -0.5q75 0 125 25.5t80.5 68t43.5 99t13 119.5q0 49 -12.5 101t-43.5 95t-83 70t-131 27z" />
<glyph unicode="E" horiz-adv-x="645" d="M564 700v-164h-64v86l-20 22h-245v-259h169l15 15v42h64v-171h-64v42l-15 16h-169v-273h262l20 20v98h64v-174h-549v56h91v588h-91v56h532z" />
<glyph unicode="F" horiz-adv-x="623" d="M235 56h107v-56h-310v56h91v588h-91v56h541v-164h-64v86l-20 22h-254v-274h181l15 15v48h64v-183h-64v48l-15 16h-181v-258z" />
<glyph unicode="G" horiz-adv-x="774" d="M669 48q-21 -12 -48 -23t-56.5 -19t-59.5 -13t-58 -5q-93 0 -165.5 21.5t-122.5 66t-76 113t-26 161.5q0 98 31.5 167t83.5 112.5t119.5 63t138.5 19.5q74 0 122 -10t86 -27v-171h-64v105l-14 20q-9 5 -23 8.5t-29.5 6t-32 3.5t-30.5 1q-55 0 -103 -17t-83.5 -53 t-56 -92.5t-20.5 -135.5q0 -142 70.5 -220t202.5 -78q33 0 56.5 4.5t41.5 11.5l15 18v189h-106v56h277v-56h-70v-227z" />
<glyph unicode="H" horiz-adv-x="820" d="M318 56v-56h-286v56h91v588h-91v56h286v-56h-83v-257h350v257h-83v56h286v-56h-91v-588h91v-56h-286v56h83v275h-350v-275h83z" />
<glyph unicode="I" horiz-adv-x="398" d="M346 0h-294v56h91v588h-91v56h294v-56h-91v-588h91v-56z" />
<glyph unicode="J" horiz-adv-x="380" d="M36 -113q17 8 33 19.5t28.5 32t20 53.5t7.5 86v566h-83v56h286v-56h-91v-556q0 -71 -18.5 -116.5t-45.5 -73t-58 -40.5t-56 -18z" />
<glyph unicode="K" horiz-adv-x="712" d="M300 382l218 262h-81v56h247v-56h-79l-238 -267l283 -321h62v-56h-161l-263 332h-53v-276h83v-56h-286v56h91v588h-91v56h286v-56h-83v-262h65z" />
<glyph unicode="L" horiz-adv-x="609" d="M32 644v56h311v-56h-108v-588h266l20 22v138h72v-216h-561v56h91v588h-91z" />
<glyph unicode="M" horiz-adv-x="984" d="M32 644v56h228l236 -448l241 448h215v-56h-91v-588h91v-56h-290v56h91v446q1 5 1.5 23.5t1.5 39.5q1 25 2 54h-9l-43 -107l-205 -362h-61l-200 362l-44 117h-10v-62q0 -23 0.5 -43.5t0.5 -21.5v-446h85v-56h-240v56h91v588h-91z" />
<glyph unicode="N" horiz-adv-x="820" d="M542 700h246v-56h-91v-656h-65l-407 549l-44 77h-4l10 -78v-480h91v-56h-246v56h91v588h-91v56h200l350 -471l52 -86h5l-6 86v415h-91v56z" />
<glyph unicode="O" horiz-adv-x="830" d="M57 350q0 78 24 144.5t69.5 115t112 75.5t151.5 27t152 -27t113 -75.5t70 -115t24 -144.5t-24 -144.5t-70 -115t-113 -75.5t-152 -27t-151.5 27t-112 75.5t-69.5 115t-24 144.5zM182 350q0 -64 14.5 -120t44.5 -97t75.5 -65t107.5 -24q57 0 99 24t69.5 65t41.5 97t14 120 t-14.5 120t-44.5 97t-75.5 65t-108.5 24q-60 0 -102.5 -24t-69.5 -65t-39 -97t-12 -120z" />
<glyph unicode="P" horiz-adv-x="667" d="M32 644v56h104q45 0 97.5 4t101.5 4q55 0 108 -10.5t94 -35.5t66.5 -66.5t25.5 -103.5q0 -59 -26 -101.5t-68.5 -69.5t-98 -40t-114.5 -13h-18t-25.5 0.5t-25.5 1.5t-18 2v-216h100v-56h-303v56h91v588h-91zM235 329q5 -2 15.5 -2.5t22.5 -1.5t23.5 -1h17.5 q39 0 73.5 9.5t60.5 29.5t41 52t15 77q0 82 -51.5 121t-140.5 39q-27 0 -45 -1.5t-32 -4.5v-317z" />
<glyph unicode="Q" horiz-adv-x="830" d="M859 -131q-44 -37 -94.5 -54t-104.5 -17q-46 0 -99.5 17t-112.5 38.5t-122 42t-129 27.5l8 40q24 3 47 3q57 0 113 -12.5t113 -27.5t115 -27.5t118 -12.5q32 0 65 5t67 16zM57 350q0 78 24 144.5t69.5 115t112 75.5t151.5 27t152 -27t113 -75.5t70 -115t24 -144.5 t-24 -144.5t-70 -115t-113 -75.5t-152 -27t-151.5 27t-112 75.5t-69.5 115t-24 144.5zM182 350q0 -64 14.5 -120t44.5 -97t75.5 -65t107.5 -24q57 0 99 24t69.5 65t41.5 97t14 120t-14.5 120t-44.5 97t-75.5 65t-108.5 24q-60 0 -102.5 -24t-69.5 -65t-39 -97t-12 -120z" />
<glyph unicode="R" horiz-adv-x="708" d="M235 56h86v-56h-289v56h91v588h-91v56h101q45 0 98 4t104 4q55 0 103.5 -11.5t83.5 -35.5t55.5 -61.5t20.5 -89.5q0 -72 -44.5 -122.5t-116.5 -71.5l199 -260h62v-56h-162l-199 302h-102v-246zM314 354q77 0 120.5 42t43.5 114q0 74 -46 108t-122 34q-26 0 -43.5 -2 t-31.5 -4v-292h79z" />
<glyph unicode="S" horiz-adv-x="596" d="M126 98l18 -24q18 -13 49.5 -21.5t69.5 -8.5q36 0 66.5 7.5t53.5 22.5t36 38t13 55q0 41 -27.5 68t-68.5 48t-89 41t-89 47t-68.5 65t-27.5 96q0 85 64.5 132.5t174.5 47.5q69 0 119 -9t85 -24v-172h-64v108l-16 25q-19 8 -55 12t-71 4q-60 0 -94 -27.5t-34 -77.5 q0 -41 27.5 -68.5t68.5 -49.5t89 -42.5t89 -47t68.5 -63.5t27.5 -92q0 -97 -75 -148.5t-205 -51.5q-71 0 -123 15t-76 32v182h64v-119z" />
<glyph unicode="T" horiz-adv-x="698" d="M508 0h-318v56h103v588h-179l-20 -22v-129h-72v207h654v-207h-72v129l-20 22h-179v-588h103v-56z" />
<glyph unicode="U" horiz-adv-x="762" d="M659 239q0 -64 -19 -110.5t-53.5 -77t-83.5 -45.5t-109 -15q-142 0 -216.5 56.5t-74.5 174.5v422h-91v56h284v-56h-81v-401q0 -52 13 -87.5t37.5 -57t60.5 -31t82 -9.5q88 0 137.5 44t49.5 144v398h-81v56h236v-56h-91v-405v0z" />
<glyph unicode="V" horiz-adv-x="771" d="M614 644h-91v56h248v-56h-82l-232 -644h-111l-260 644h-86v56h307v-56h-96l180 -467l29 -95h4l30 97z" />
<glyph unicode="W" horiz-adv-x="1056" d="M897 644h-87v56h246v-56h-83l-167 -644h-116l-156 554l-157 -554h-116l-175 644h-86v56h299v-56h-95l107 -428l26 -133h4l39 135q0 1 6 22.5t16 55.5t22 77.5t25 88.5q30 106 68 238h74l142 -482l31 -133h5l30 135z" />
<glyph unicode="X" horiz-adv-x="756" d="M449 700h252v-56h-82l-196 -269l230 -319h91v-56h-291v56h73l-176 247l-166 -247h77v-56h-251v56h84l219 296l-210 292h-89v56h298v-56h-80l155 -223l150 223h-88v56z" />
<glyph unicode="Y" horiz-adv-x="727" d="M478 700h249v-56h-85l-213 -347v-241h91v-56h-294v56h91v240l-226 348h-91v56h302v-56h-84l181 -291l171 291h-92v56z" />
<glyph unicode="Z" horiz-adv-x="672" d="M40 56l458 588h-341l-20 -22v-125h-72v203h561v-56l-458 -588h372l20 22v125h72v-203h-592v56z" />
<glyph unicode="[" horiz-adv-x="346" d="M92 700h215v-42h-115v-846h115v-42h-215v930z" />
<glyph unicode="\" horiz-adv-x="428" d="M459 -107l-58 -27l-455 823l58 29z" />
<glyph unicode="]" horiz-adv-x="346" d="M254 -230h-215v42h115v846h-115v42h215v-930z" />
<glyph unicode="^" d="M284 711h39l191 -277h-102l-126 199l-146 -199h-64z" />
<glyph unicode="_" horiz-adv-x="460" d="M0 -141h460v-55h-460v55z" />
<glyph unicode="`" horiz-adv-x="344" d="M284 615l-28 -23l-196 117v41h126z" />
<glyph unicode="a" horiz-adv-x="569" d="M464 139q0 -23 1 -46.5t3 -42.5h66v-50h-157l-10 95h-5q-5 -20 -18.5 -39t-34 -34t-48.5 -24t-62 -9t-62.5 10t-49.5 28t-32.5 43.5t-11.5 57.5q0 49 20.5 81t60.5 50.5t100 26.5t140 9q2 16 2 30.5v28.5q0 62 -21 94.5t-75 32.5q-20 0 -43 -2t-42 -12v-92h-90v111 q36 19 85 34t115 15q57 0 91.5 -14.5t53 -38t24 -53t5.5 -58.5q0 -63 -2.5 -120.5t-2.5 -111.5zM245 56q24 0 43 7.5t33.5 19t25 25.5t17.5 27v119q-65 0 -105.5 -8.5t-63.5 -22.5t-31.5 -33.5t-8.5 -41.5q0 -45 24 -68.5t66 -23.5z" />
<glyph unicode="b" horiz-adv-x="614" d="M85 700h-85v50h190v-328h3q19 53 64 83t101 30q102 0 156.5 -64t54.5 -199q0 -139 -75.5 -210.5t-215.5 -71.5q-28 0 -56.5 3.5t-55 9t-47.5 12.5t-34 15v670zM325 468q-54 0 -86.5 -32.5t-48.5 -83.5v-291q20 -11 48.5 -17.5t61.5 -6.5q74 0 115 60t41 175q0 41 -7 77 t-23 62.5t-40.5 41.5t-60.5 15z" />
<glyph unicode="c" horiz-adv-x="523" d="M482 67q-21 -29 -66.5 -53.5t-107.5 -24.5q-66 0 -115.5 19.5t-82.5 55t-49 86t-16 112.5q0 133 70.5 203t191.5 70q55 0 91 -7t66 -22v-130h-90v96q-15 9 -60 9q-38 0 -67 -11t-49 -36t-30 -67t-10 -103q0 -40 11 -76.5t33 -64t55.5 -43.5t78.5 -16q24 0 42.5 5 t32.5 10.5t25 12.5t21 15z" />
<glyph unicode="d" horiz-adv-x="625" d="M418 104q-6 -23 -19.5 -44t-33 -37t-44.5 -25t-54 -9q-111 0 -166.5 65.5t-55.5 204.5q0 67 18.5 118.5t52.5 86.5t82 53t107 18q21 0 36 -1t28 -3t25 -5.5t26 -7.5v182h-85v50h190v-700h68v-50h-162l-9 104h-4zM290 56q55 0 86 31t44 86v295q-20 10 -44.5 15t-64.5 5 q-37 0 -65.5 -16t-48 -46t-29.5 -72.5t-10 -94.5q0 -42 7.5 -79t23.5 -64.5t41 -43.5t60 -16z" />
<glyph unicode="e" horiz-adv-x="566" d="M499 69q-26 -37 -73.5 -58.5t-110.5 -21.5q-66 0 -116.5 19.5t-84.5 55t-51.5 86t-17.5 112.5q0 134 67 203.5t188 69.5q40 0 78.5 -10t68.5 -33t48.5 -61t18.5 -94q0 -17 -2 -36t-6 -40h-348q0 -44 11.5 -80t35 -62t58.5 -40.5t83 -14.5q39 0 72.5 13t53.5 30zM296 488 q-31 0 -54.5 -9t-40.5 -30t-27 -55.5t-13 -85.5h241q1 9 1.5 18.5t0.5 17.5q0 66 -26.5 105t-81.5 39z" />
<glyph unicode="f" horiz-adv-x="385" d="M347 750q35 0 62.5 -6t41.5 -11v-97h-96v64q-33 0 -57.5 -6t-40.5 -23t-24 -46.5t-8 -77.5v-22h128v-64h-128v-411h107v-50h-286v50h74v411h-85v64h85v16q0 101 60.5 155t166.5 54z" />
<glyph unicode="g" horiz-adv-x="592" d="M582 525v-64h-117q14 -14 26 -39t12 -60q0 -74 -58 -119t-167 -45q-20 0 -34 0.5t-30 4.5q-5 -10 -12.5 -21.5t-7.5 -24.5q0 -21 26 -31.5t65 -19t85 -17t85.5 -25t65.5 -43.5t26 -71q0 -38 -19.5 -66.5t-55 -47t-84.5 -27.5t-107 -9q-125 0 -187 33t-62 91q0 56 38 86 t107 50q-26 11 -42 24t-16 39q0 12 6 24.5t16 24t22 21t23 15.5q-64 17 -98.5 58t-34.5 98q0 73 57 117t168 44h304zM442 -74q0 33 -23.5 52.5t-59 32t-76.5 20.5t-77 19q-42 -25 -55.5 -50.5t-13.5 -54.5q0 -42 42 -70t122 -28q41 0 68 6.5t43.5 17.5t23 25t6.5 30z M158 364q0 -26 6 -48t19.5 -37.5t36.5 -24.5t58 -9q64 0 92 32.5t28 86.5q0 21 -1.5 35t-4 25t-5.5 19.5t-6 17.5q-23 10 -49 13.5t-54 3.5q-68 0 -94 -28t-26 -86z" />
<glyph unicode="h" horiz-adv-x="661" d="M642 0h-245v50h66v246q0 83 -22 127.5t-78 44.5q-30 0 -56 -10t-46 -26t-34.5 -35.5t-21.5 -38.5v-308h66v-50h-245v50h74v650h-85v50h190v-331h1q23 49 72.5 82.5t118.5 33.5q39 0 71 -9.5t54 -34.5t34 -67t12 -107v-267h74v-50z" />
<glyph unicode="i" horiz-adv-x="339" d="M298 0h-253v50h74v425h-74v50h179v-475h74v-50zM97 687q0 29 20.5 46t52.5 17q34 0 53.5 -17t19.5 -46t-19.5 -46t-53.5 -17q-32 0 -52.5 17t-20.5 46z" />
<glyph unicode="j" horiz-adv-x="326" d="M119 475h-74v50h179v-463q0 -75 -20.5 -124t-48.5 -79.5t-56.5 -45t-44.5 -19.5l-27 43q13 6 29 18.5t30 35.5t23.5 59.5t9.5 91.5v433zM96 687q0 29 20.5 46t52.5 17q34 0 53.5 -17t19.5 -46t-19.5 -46t-53.5 -17q-32 0 -52.5 17t-20.5 46z" />
<glyph unicode="k" horiz-adv-x="582" d="M317 525h220v-50h-64l-155 -179l204 -246h50v-50h-144l-186 249h-37v-199h74v-50h-253v50h74v650h-85v50h190v-461h35l153 186h-76v50z" />
<glyph unicode="l" horiz-adv-x="339" d="M298 0h-253v50h74v650h-85v50h190v-700h74v-50z" />
<glyph unicode="m" horiz-adv-x="971" d="M617 0h-242v50h65v243q0 42 -3.5 75t-14 55t-30.5 33.5t-52 11.5q-24 0 -44 -8.5t-36 -23.5t-27.5 -34.5t-18.5 -41.5v-310h65v-50h-244v50h74v425h-74v50h179v-106h1q17 49 60.5 82.5t106.5 33.5q26 0 51.5 -5t46.5 -19t36.5 -38.5t21.5 -64.5q10 25 26.5 48t39 40.5 t50.5 28t61 10.5q41 0 71.5 -10t51 -34.5t30.5 -67t10 -108.5v-265h74v-50h-244v50h65v262q0 37 -4 66.5t-15 49t-31 30t-53 10.5q-53 0 -82.5 -32.5t-42.5 -85.5v-300h72v-50z" />
<glyph unicode="n" horiz-adv-x="670" d="M651 0h-245v50h66v251q0 79 -24 123t-88 44q-28 0 -51.5 -9t-42 -24t-32 -35t-20.5 -42v-308h66v-50h-245v50h74v425h-74v50h179v-104h1q23 48 67.5 81t107.5 33q45 0 80 -9.5t58.5 -34.5t36 -67t12.5 -107v-267h74v-50z" />
<glyph unicode="o" horiz-adv-x="622" d="M45 262q0 66 19 117t53.5 85.5t84 52.5t109.5 18q70 0 120.5 -19.5t82.5 -55t47.5 -86t15.5 -112.5q0 -66 -18.5 -116.5t-53 -85t-84 -52.5t-110.5 -18q-68 0 -118 19.5t-83 55t-49 85.5t-16 112zM158 262q0 -48 9 -89t29.5 -71t53 -47.5t79.5 -17.5q59 0 97 54t38 171 q0 48 -9 89.5t-28.5 72t-50 47.5t-74.5 17q-66 0 -105 -54t-39 -172z" />
<glyph unicode="p" horiz-adv-x="636" d="M287 -200h-253v50h74v625h-74v50h179v-105h1q22 53 62.5 84t106.5 31q99 0 153.5 -61t54.5 -200q0 -66 -18.5 -119t-53 -90t-83 -56.5t-108.5 -19.5q-20 0 -35.5 1t-28.5 3t-25.5 6t-25.5 9v-158h74v-50zM344 468q-54 0 -85.5 -30.5t-45.5 -86.5v-293q20 -13 44.5 -17.5 t65.5 -4.5q37 0 66 17.5t49 49t30.5 75t10.5 96.5q0 43 -7 78.5t-22.5 61t-41.5 40t-64 14.5z" />
<glyph unicode="q" horiz-adv-x="616" d="M417 93q-8 -21 -22 -39.5t-33.5 -33t-44.5 -23t-56 -8.5q-106 0 -161 66t-55 203t73 207t210 70q30 0 60 -3t56.5 -8t48 -10.5t33.5 -11.5v-652h74v-50h-253v50h74v243h-4zM290 56q54 0 85.5 31t45.5 85v301q-20 5 -47.5 10t-62.5 5q-74 0 -113.5 -54.5t-39.5 -172.5 q0 -44 7 -81.5t22.5 -65t40.5 -43t62 -15.5z" />
<glyph unicode="r" horiz-adv-x="433" d="M284 435q-23 -12 -38 -28t-32 -46v-311h88v-50h-267v50h74v425h-74v50h179v-101h4q17 33 40 57.5t52 43.5h96v-90h-122z" />
<glyph unicode="s" horiz-adv-x="486" d="M332 119q0 27 -20 47.5t-50 38t-65 35t-65 40t-50 53t-20 73.5q0 29 14 52.5t37.5 40.5t55.5 26.5t68 9.5q30 0 53 -2t42 -5.5t36 -8.5t35 -11v-135h-64v79l-19 22q-13 3 -28 5t-32 2q-48 0 -71.5 -18.5t-23.5 -46.5q0 -27 20 -47t50 -37.5t65 -34.5t65 -38.5t50 -49.5 t20 -67q0 -36 -16.5 -64t-45 -47.5t-67 -30t-81.5 -10.5q-48 0 -93.5 12.5t-71.5 29.5v131h64v-76l20 -21q13 -10 31 -16t47 -6q48 0 79 20t31 55z" />
<glyph unicode="t" horiz-adv-x="418" d="M17 525h89v125h105v-125h166v-64h-166v-292q0 -63 16 -89t52 -26q31 0 53.5 11t41.5 24l25 -39q-9 -9 -24.5 -19.5t-35.5 -19.5t-44.5 -15t-50.5 -6q-67 0 -102.5 34.5t-35.5 114.5v322h-89v64z" />
<glyph unicode="u" horiz-adv-x="647" d="M87 208q0 66 3 135t3 132h-74v50h178q-2 -78 -3.5 -149.5t-1.5 -148.5q0 -41 4.5 -72.5t17 -53.5t34.5 -33t56 -11q50 0 84 32t52 86v300h-73v50h178v-475h74v-50h-167l-7 114h-5q-5 -21 -19.5 -43t-36.5 -40t-51 -29.5t-63 -11.5q-45 0 -79 9.5t-57 34.5t-35 67t-12 107 z" />
<glyph unicode="v" horiz-adv-x="571" d="M238 0l-192 475h-57v50h238v-50h-67l120 -315l26 -109h5l28 109l112 315h-61v50h192v-50h-62l-174 -475h-108z" />
<glyph unicode="w" horiz-adv-x="820" d="M176 0l-127 475h-60v50h236v-50h-67l83 -337l12 -77h6l15 78l120 373h79l102 -351l22 -100h5l19 98l79 316h-62v50h193v-50h-63l-132 -475h-117l-80 299q-1 1 -3.5 14.5t-6.5 30.5q-4 19 -10 43h-6q-7 -25 -12 -43q-5 -17 -9 -30t-4 -15l-102 -299h-110z" />
<glyph unicode="x" horiz-adv-x="586" d="M338 281l177 -231h59v-50h-244v50h67l-123 174l-124 -174h55v-50h-193v50h63l167 210l-168 215h-55v50h240v-50h-65l115 -159l112 159h-55v50h188v-50h-62z" />
<glyph unicode="y" horiz-adv-x="568" d="M47 475h-59v50h258v-50h-84l136 -332l20 -76h5l19 77l107 331h-61v50h192v-50h-64l-164 -475q-14 -41 -30.5 -75.5t-32 -61t-30 -43t-24.5 -20.5h-101v90h102q7 8 13 16t12 20t13 29.5t16 44.5h-37z" />
<glyph unicode="z" horiz-adv-x="549" d="M491 181v-181h-434v50l329 425h-217l-20 -20v-100h-64v170h416v-50l-331 -425h237l20 20v111h64z" />
<glyph unicode="{" horiz-adv-x="391" d="M150 110q0 51 -23 80t-67 29v32q44 0 67 30.5t23 74.5v238q0 48 27 77t81 29h103v-42h-53q-30 0 -44 -14t-14 -46v-233q0 -33 -12 -56t-30 -37.5t-40 -22t-42 -9.5v-6q19 -2 41 -10t40.5 -24t30.5 -39.5t12 -55.5v-233q0 -31 14 -45.5t46 -14.5h51v-42h-103 q-50 0 -79 26.5t-29 78.5v235z" />
<glyph unicode="|" horiz-adv-x="266" d="M103 700h59v-830h-59v830z" />
<glyph unicode="}" horiz-adv-x="391" d="M241 361q0 -51 23.5 -80t66.5 -29v-32q-43 0 -66.5 -30.5t-23.5 -74.5v-239q0 -48 -27 -77t-82 -29h-102v42h53q30 0 44 14t14 46v234q0 33 10 56t26.5 37.5t36.5 22t40 9.5v6q-20 2 -40 10t-36 24t-26.5 39.5t-10.5 55.5v232q0 31 -13.5 45.5t-45.5 14.5h-52v42h103 q50 0 79 -26.5t29 -78.5v-234z" />
<glyph unicode="~" d="M61 331q41 54 82 70.5t76 16.5q29 0 55.5 -10.5t52.5 -23.5t52 -23.5t54 -10.5q21 0 42.5 7.5t44.5 26.5l19 -32q-32 -42 -65.5 -54.5t-65.5 -12.5q-29 0 -56.5 10.5t-54.5 23.5t-54 23.5t-54 10.5q-25 0 -49.5 -10.5t-50.5 -41.5z" />
<glyph unicode="&#xa1;" horiz-adv-x="368" d="M79 0zM173.012 286.014l37.998 -176.989v-304.981h-104.994v304.981l36.998 176.989h29.998zM235.008 446.004q0 -30.998 -21.498 -48.9971q-21.499 -17.999 -55.4971 -17.999q-34.998 0 -56.9961 17.999q-21.999 17.999 -21.999 48.9971q0 29.998 21.999 47.9971 q21.998 17.999 56.9961 17.999q33.998 0 55.4971 -17.999q21.498 -17.999 21.498 -47.9971z" />
<glyph unicode="&#xa2;" d="M547 78q-10 -18 -27.5 -34t-41 -28.5t-51 -20t-58.5 -7.5v-158h-64v162q-53 6 -96.5 27t-75 54.5t-48.5 78.5t-17 98q0 62 17 111t48.5 84t75 56.5t96.5 29.5v129h64v-125q54 0 87.5 -8t63.5 -22v-167h-64v137q-3 2 -11.5 4.5t-19.5 5t-23 4t-24 1.5h-11v-440q4 0 8 -0.5 t8 -0.5q38 0 72 14t67 46zM181 269q0 -71 32 -123.5t96 -77.5v414q-57 -16 -92.5 -70.5t-35.5 -142.5z" />
<glyph unicode="&#xa3;" d="M34 381h95q-17 32 -30 67t-13 86q0 41 17 74t47.5 56t73 35.5t94.5 12.5q69 0 121 -9.5t84 -23.5v-172h-64v115l-20 24q-11 3 -21 5.5t-23.5 4t-32 2t-45.5 0.5q-24 0 -46.5 -7t-39.5 -21t-27 -34.5t-10 -47.5q0 -51 15 -90.5t29 -76.5h173v-52h-153q8 -25 10 -50t2 -53 q0 -16 -2.5 -31.5t-11.5 -32.5t-26 -36t-45 -43h279l20 20v93h64v-196h-511v33q72 27 107.5 66t35.5 99q0 32 -5.5 62.5t-19.5 68.5h-121v52z" />
<glyph unicode="&#xa4;" d="M40 171l93 81l38 12q-16 17 -22 37.5t-6 44.5q0 23 7 44t21 38l-38 12l-92 82l61 56l92 -83l14 -34q20 13 42.5 20t49.5 7q56 -2 92 -27l14 34l91 82l62 -56l-92 -81l-38 -11q14 -17 20.5 -38t7.5 -45q0 -49 -28 -83l38 -11l92 -82l-63 -56l-91 82l-13 34 q-38 -24 -92 -24q-27 0 -50 6.5t-45 17.5l-11 -33l-93 -82zM300 264q41 0 68 23t27 59t-27 60t-68 24t-68 -24t-27 -60t27 -59t68 -23z" />
<glyph unicode="&#xa5;" d="M404 700h247v-50h-86l-177 -315h159v-52h-181v-63h181v-52h-181v-118h91v-50h-294v50h91v118h-181v52h181v63h-181v52h158l-193 315h-91v50h303v-50h-86l171 -299l160 299h-91v50z" />
<glyph unicode="&#xa6;" horiz-adv-x="266" d="M103 190h59v-320h-59v320zM162 380h-59v320h59v-320z" />
<glyph unicode="&#xa7;" horiz-adv-x="595" d="M390 43q0 30 -24 48t-60 31.5t-78 26t-78 31.5t-60 48t-24 76q0 25 11.5 46.5t31.5 39.5t46.5 32.5t57.5 26.5q-23 10 -43.5 22t-35.5 28.5t-24 38t-9 49.5q0 27 13.5 50t38 39.5t59 26t76.5 9.5q60 0 103.5 -6t79.5 -17v-102h-72v63q-12 5 -35 11.5t-49 6.5 q-30 0 -51 -6.5t-34.5 -16.5t-19.5 -23t-6 -26q0 -30 24 -49t60 -34t78 -29t78 -32.5t60 -46t24 -68.5q0 -29 -13.5 -52.5t-34.5 -42t-46.5 -33.5t-49.5 -25q22 -9 42 -19.5t35 -24.5t23.5 -31.5t8.5 -40.5q0 -35 -15.5 -62.5t-44.5 -47t-70 -30t-91 -10.5q-97 0 -182 30 v105h72v-63q12 -8 41 -18t67 -10q54 0 87 24t33 57zM425 312q0 24 -13.5 41t-36 30t-51.5 23.5t-59 21.5q-18 -8 -35.5 -19t-31 -24t-21.5 -28t-8 -31q0 -26 14 -45t37 -33t52.5 -24.5t60.5 -20.5q18 10 34.5 23.5t29.5 28t20.5 29t7.5 28.5z" />
<glyph unicode="&#xa8;" horiz-adv-x="494" d="M60 688q0 29 17.5 46.5t46.5 17.5t46.5 -17.5t17.5 -46.5q0 -27 -17.5 -44.5t-46.5 -17.5t-46.5 17.5t-17.5 44.5zM306 688q0 29 18.5 46.5t46.5 17.5q29 0 46 -17.5t17 -46.5q0 -27 -17 -44.5t-46 -17.5q-28 0 -46.5 17.5t-18.5 44.5z" />
<glyph unicode="&#xa9;" horiz-adv-x="907" d="M78 290q0 83 31 148.5t83 110.5t120 69t141 24t139.5 -24t117 -69t80 -110.5t29.5 -148.5t-29.5 -148.5t-80 -110.5t-117 -69t-139.5 -24q-81 0 -149.5 24t-119 69t-78.5 110.5t-28 148.5zM132 290q0 -69 24 -125t67 -95.5t102 -61.5t128 -22q70 0 127.5 22t98.5 61.5 t63.5 95.5t22.5 125t-24 125t-66 96t-99 61.5t-123 21.5q-74 0 -133 -22t-101 -61.5t-64.5 -95.5t-22.5 -125zM545 207h46v-100q-20 -14 -49 -19.5t-61 -5.5q-54 0 -99.5 13.5t-78.5 40t-51.5 65.5t-18.5 90q0 52 20.5 91t53.5 65t75 39.5t85 13.5q45 0 75 -5.5t53 -16.5 v-109h-50v78q-3 2 -11.5 4t-18.5 3.5t-21 2.5t-19 1q-63 0 -98.5 -44.5t-35.5 -122.5q0 -33 8 -63.5t25.5 -53.5t45.5 -36.5t67 -13.5q21 0 37 5t21 9v69z" />
<glyph unicode="&#xaa;" horiz-adv-x="484" d="M96 600l-6 73q14 6 29.5 12t36 10t47 6.5t62.5 2.5q72 0 99 -26t27 -75q0 -19 -0.5 -42.5t-1 -47.5t-1 -45.5t-0.5 -37.5h56v-50h-123l-10 59h-5q-6 -9 -16 -21t-25.5 -22t-38.5 -17t-54 -7q-52 0 -84.5 24.5t-32.5 68.5q0 31 17.5 50.5t47.5 30.5t70 15.5t84 4.5 q8 0 15.5 -0.5t15.5 -0.5q1 6 1 17.5v16.5q0 13 -3 25t-12 21.5t-24.5 15t-39.5 5.5q-13 0 -28.5 -2.5t-31.5 -7.5v-56h-71zM206 419q23 0 39.5 6.5t28.5 15.5t19 19.5t12 19.5v52q-11 1 -23 1h-23q-22 0 -42.5 -3.5t-36 -11t-24.5 -19.5t-9 -28q0 -20 15 -36t44 -16z" />
<glyph unicode="&#xab;" horiz-adv-x="530" d="M246 259l191 206l29 -20l-119 -179l125 -189l-27 -21zM27 259l241 208l29 -21l-155 -181l162 -189l-30 -22z" />
<glyph unicode="&#xac;" d="M67 388h478v-190h-71v126h-407v64z" />
<glyph unicode="&#xad;" horiz-adv-x="475" d="M80 250zM80 314h316v-64h-316v64z" />
<glyph unicode="&#xae;" horiz-adv-x="785" d="M109 451q0 64 23 114t62 84t90.5 51.5t108.5 17.5q59 0 111 -17.5t90.5 -51.5t61 -84t22.5 -114q0 -65 -23 -114.5t-62.5 -83.5t-91 -51.5t-108.5 -17.5q-56 0 -107 17.5t-90.5 51.5t-63 83.5t-23.5 114.5zM157 451q0 -52 19.5 -93.5t52 -71t75 -45t89.5 -15.5 q49 0 92 15.5t75.5 44.5t51 70.5t18.5 94.5q0 52 -19.5 93.5t-52 70.5t-75.5 45t-90 16q-50 0 -93 -16t-75 -45t-50 -70.5t-18 -93.5zM356 343h40v-34h-140v34h39v231h-39v34h44q20 0 48 2t46 2q25 0 48.5 -4.5t41 -15t28 -26.5t10.5 -38q0 -31 -21.5 -51.5t-52.5 -29.5 l73 -104h27v-34h-77l-76 134h-39v-100zM389 579q-13 0 -19.5 -0.5t-13.5 -2.5v-103h35q65 0 65 55q0 26 -19 38.5t-48 12.5z" />
<glyph unicode="&#xaf;" horiz-adv-x="408" d="M60 668v55h288v-55h-288z" />
<glyph unicode="&#xb0;" horiz-adv-x="474" d="M101 571q0 31 11 57t31 44.5t47.5 29t60.5 10.5q66 0 108.5 -35.5t42.5 -105.5q0 -66 -42.5 -103.5t-108.5 -37.5q-33 0 -60.5 9.5t-47.5 28t-31 44.5t-11 59zM161 571q0 -40 26 -65.5t64 -25.5q43 0 67 23.5t24 67.5q0 42 -24.5 66.5t-66.5 24.5q-43 0 -66.5 -24.5 t-23.5 -66.5z" />
<glyph unicode="&#xb1;" d="M48 491h222v209h60v-209h222v-54h-222v-153h-60v153h-222v54zM48 231h504v-54h-504v54z" />
<glyph unicode="&#xb2;" horiz-adv-x="480" d="M66 380zM143 633h-64v124q17 11 33 20t35 16t43 10.5t58 3.5q43 0 72.5 -9.5t47.5 -25t26 -36.5t8 -45q0 -33 -18 -66.5t-51 -65.5t-78.5 -61.5t-99.5 -54.5v-6l35 6h172v68h64v-131h-360v63q46 23 89 50t76.5 57t54 62t20.5 65q0 19 -4 33.5t-14.5 25t-28.5 16t-46 5.5 q-20 0 -37.5 -3t-32.5 -11v-110z" />
<glyph unicode="&#xb3;" horiz-adv-x="480" d="M57 373zM231 420q27 0 46 7t31 18t17.5 24.5t5.5 26.5q0 42 -26.5 60t-87.5 18h-38v32l146 144h-190v-94h-64v144h334v-50l-147 -131v-1l35 4q27 0 51 -7.5t42.5 -22t29.5 -36.5t11 -51q0 -65 -56.5 -98.5t-152.5 -33.5q-46 0 -89 16t-72 35v72h90v-53q10 -6 30 -14.5 t54 -8.5z" />
<glyph unicode="&#xb4;" horiz-adv-x="344" d="M158 750h126v-41l-196 -117l-28 23z" />
<glyph unicode="&#xb6;" horiz-adv-x="592" d="M444 94q0 -67 -12 -109.5t-33 -68t-49.5 -38t-61.5 -18.5q-23 -32 -53 -48t-59 -24l-23 33q25 9 46 22.5t36 36t23.5 57.5t8.5 87v286q-36 0 -71.5 10t-64 32.5t-46.5 59t-18 88.5q0 42 14 78.5t42 63.5t70.5 42.5t99.5 15.5h235v-50h-84v-556zM310 -94q35 13 52.5 56 t17.5 132v556h-49v-626q0 -40 -4 -68.5t-17 -49.5z" />
<glyph unicode="&#xb7;" horiz-adv-x="269" d="M59 242zM59 308q0 31 21 49t56 18t57 -18t22 -49q0 -30 -22 -48t-57 -18t-56 18t-21 48z" />
<glyph unicode="&#xb8;" horiz-adv-x="306" d="M125 -61q63 -2 92 -17.5t29 -48.5q0 -32 -17.5 -51t-44.5 -29t-60 -13.5t-64 -3.5v32q21 1 38.5 3t29.5 7t18.5 14t6.5 25q0 26 -23 32t-69 10l42 102h51z" />
<glyph unicode="&#xb9;" horiz-adv-x="480" d="M86 380zM410 380h-315v50h112v309l-99 -37l-22 45l121 53h91v-370h112v-50z" />
<glyph unicode="&#xba;" horiz-adv-x="490" d="M48 542q0 39 15 70t41 53.5t62.5 34.5t78.5 12q43 0 79 -10.5t62 -31.5t40.5 -53t14.5 -75q0 -39 -14.5 -70.5t-40.5 -53.5t-62 -34t-79 -12q-42 0 -78.5 10.5t-62.5 31.5t-41 53t-15 75zM144 542q0 -60 26 -96t75 -36q100 0 100 132t-100 132q-49 0 -75 -33t-26 -99z " />
<glyph unicode="&#xbb;" horiz-adv-x="530" d="M88 56l-29 21l125 184l-119 184l29 20l191 -206zM257 54l-31 22l164 184l-157 186l29 21l242 -208z" />
<glyph unicode="&#xbc;" horiz-adv-x="1055" d="M69 0zM393 280h-315v50h112v309l-99 -37l-22 45l121 53h91v-370h112v-50zM845 714l41 -38l-657 -686l-39 39zM941 0h-240v50h89v69h-250v50l250 251h84v-251h95v-50h-95v-69h67v-50zM790 344l-179 -175h179v175z" />
<glyph unicode="&#xbd;" horiz-adv-x="1129" d="M69 0zM393 280h-315v50h112v309l-99 -37l-22 45l121 53h91v-370h112v-50zM845 714l41 -38l-657 -686l-39 39zM767 253h-64v124q17 11 33 20t35 16t43 10.5t58 3.5q43 0 72.5 -9.5t47.5 -25t26 -36.5t8 -45q0 -33 -18 -66.5t-51 -65.5t-78.5 -61.5t-99.5 -54.5v-6l35 6 h172v68h64v-131h-360v63q46 23 89 50t76.5 57t54 62t20.5 65q0 19 -4 33.5t-14.5 25t-28.5 16t-46 5.5q-20 0 -37.5 -3t-32.5 -11v-110z" />
<glyph unicode="&#xbe;" horiz-adv-x="1111" d="M86 0zM260 320q27 0 46 7t31 18t17.5 24.5t5.5 26.5q0 42 -26.5 60t-87.5 18h-38v32l146 144h-190v-94h-64v144h334v-50l-147 -131v-1l35 4q27 0 51 -7.5t42.5 -22t29.5 -36.5t11 -51q0 -65 -56.5 -98.5t-152.5 -33.5q-46 0 -89 16t-72 35v72h90v-53q10 -6 30 -14.5 t54 -8.5zM901 714l41 -38l-657 -686l-39 39zM998 0h-240v50h89v69h-250v50l250 251h84v-251h95v-50h-95v-69h67v-50zM847 344l-179 -175h179v175z" />
<glyph unicode="&#xbf;" horiz-adv-x="531" d="M32 0zM352.011 -43.9668h95.9941v-120.992q-41.9971 -22.999 -87.9951 -32.998q-45.9971 -10 -99.9932 -10q-117.993 0 -172.99 53.4971q-54.9961 53.4971 -54.9961 148.491q0 43.9971 15.499 81.9951q15.499 37.9971 44.9971 67.9951q29.498 29.999 71.4961 50.4971 q41.9971 20.499 95.9941 27.499v99.9932h63.9961v-141.991q-44.998 -8.99902 -78.4951 -22.998q-33.498 -13.999 -55.9971 -35.998t-33.998 -53.4971t-11.499 -75.4951q0 -26.998 6.99902 -53.4971q7 -26.498 21.999 -47.4971q14.999 -20.998 38.498 -33.998 q23.498 -12.999 56.4961 -12.999q34.998 0 54.4971 5.5t29.498 13.499v92.9941zM371.01 446.004q0 -30.998 -20.999 -48.9971t-55.9971 -17.999q-34.9971 0 -56.9961 17.999t-21.999 48.9971q0 29.998 21.999 47.9971t56.9961 17.999q34.998 0 55.9971 -17.999 t20.999 -47.9971z" />
<glyph unicode="&#xc0;" horiz-adv-x="755" d="M0 0zM245 0h-245v56h78l259 644h106l237 -644h75v-56h-286v56h89l-65 176h-266l-68 -176h86v-56zM250 288h226l-82 231l-25 106h-4l-29 -108zM433 793l-13 -24l-256 72v40l123 33z" />
<glyph unicode="&#xc1;" horiz-adv-x="755" d="M0 0zM245 0h-245v56h78l259 644h106l237 -644h75v-56h-286v56h89l-65 176h-266l-68 -176h86v-56zM250 288h226l-82 231l-25 106h-4l-29 -108zM485 914l123 -33v-40l-256 -72l-13 24z" />
<glyph unicode="&#xc2;" horiz-adv-x="755" d="M0 0zM245 0h-245v56h78l259 644h106l237 -644h75v-56h-286v56h89l-65 176h-266l-68 -176h86v-56zM250 288h226l-82 231l-25 106h-4l-29 -108zM244 761l-16 20l142 133h31l141 -130l-18 -22l-142 56z" />
<glyph unicode="&#xc3;" horiz-adv-x="755" d="M0 0zM245 0h-245v56h78l259 644h106l237 -644h75v-56h-286v56h89l-65 176h-266l-68 -176h86v-56zM250 288h226l-82 231l-25 106h-4l-29 -108zM564 843q-36 -38 -65.5 -53t-58.5 -15q-21 0 -39.5 6.5t-36.5 14t-35 14t-35 6.5q-14 0 -31 -6.5t-35 -23.5l-22 36 q43 42 76 57t62 15q21 0 39 -6t35 -13.5t33.5 -13.5t34.5 -6q14 0 30.5 5t33.5 19z" />
<glyph unicode="&#xc4;" horiz-adv-x="755" d="M0 0zM245 0h-245v56h78l259 644h106l237 -644h75v-56h-286v56h89l-65 176h-266l-68 -176h86v-56zM250 288h226l-82 231l-25 106h-4l-29 -108zM194 796q0 29 18.5 43.5t46.5 14.5q29 0 48 -14.5t19 -43.5q0 -26 -19 -40t-48 -14q-28 0 -46.5 14t-18.5 40zM446 796 q0 29 19 43.5t46 14.5q29 0 48 -14.5t19 -43.5q0 -26 -19 -40t-48 -14q-27 0 -46 14t-19 40z" />
<glyph unicode="&#xc5;" horiz-adv-x="755" d="M0 0zM245 0h-245v56h78l259 644h106l237 -644h75v-56h-286v56h89l-65 176h-266l-68 -176h86v-56zM250 288h226l-82 231l-25 106h-4l-29 -108zM259 788q0 41 38 63.5t93 22.5q22 0 44 -5t39.5 -15t28.5 -25.5t11 -37.5q0 -20 -10 -35t-27.5 -26t-40 -16.5t-46.5 -5.5 q-58 0 -94 21t-36 59zM334 788q0 -17 14.5 -27.5t34.5 -10.5q29 0 42 10t13 27q0 26 -15 35.5t-36 9.5q-27 0 -40 -12.5t-13 -31.5z" />
<glyph unicode="&#xc6;" horiz-adv-x="1027" d="M0 0zM943 700v-164h-64v86l-20 22h-242v-259h169l15 15v42h64v-171h-64v42l-15 16h-169v-273h262l20 20v98h64v-174h-546v56h88v197h-218l-129 -197h94v-56h-252v56h82l390 588h-60v56h531zM321 309h184v301h-2l-45 -93z" />
<glyph unicode="&#xc7;" horiz-adv-x="698" d="M569 184h64v-157q-31 -17 -82 -28t-101 -11h-7l-27 -52q68 -2 101 -18.5t33 -52.5q0 -30 -20 -49t-50.5 -29.5t-66.5 -14.5t-68 -4v33q22 1 40.5 3.5t32.5 7.5t22 13.5t8 22.5q0 27 -25 35t-75 10l40 98q-78 6 -139.5 30.5t-104 69t-65 109t-22.5 150.5q0 98 30 166.5 t81 112t118 63.5t141 20q36 0 65 -2.5t52.5 -7.5t43.5 -12t39 -15v-171h-64v105l-14 20q-11 5 -34.5 12t-75.5 7q-54 0 -101 -17t-81.5 -53t-54.5 -92.5t-20 -135.5q0 -143 72.5 -220.5t203.5 -77.5q36 0 60.5 5.5t36.5 14.5l14 19v93z" />
<glyph unicode="&#xc8;" horiz-adv-x="645" d="M32 0zM564 700v-164h-64v86l-20 22h-245v-259h169l15 15v42h64v-171h-64v42l-15 16h-169v-273h262l20 20v98h64v-174h-549v56h91v588h-91v56h532zM411 793l-13 -24l-256 72v40l123 33z" />
<glyph unicode="&#xc9;" horiz-adv-x="645" d="M32 0zM564 700v-164h-64v86l-20 22h-245v-259h169l15 15v42h64v-171h-64v42l-15 16h-169v-273h262l20 20v98h64v-174h-549v56h91v588h-91v56h532zM379 914l123 -33v-40l-256 -72l-13 24z" />
<glyph unicode="&#xca;" horiz-adv-x="645" d="M32 0zM564 700v-164h-64v86l-20 22h-245v-259h169l15 15v42h64v-171h-64v42l-15 16h-169v-273h262l20 20v98h64v-174h-549v56h91v588h-91v56h532zM181 761l-16 20l142 133h31l141 -130l-18 -22l-142 56z" />
<glyph unicode="&#xcb;" horiz-adv-x="645" d="M32 0zM564 700v-164h-64v86l-20 22h-245v-259h169l15 15v42h64v-171h-64v42l-15 16h-169v-273h262l20 20v98h64v-174h-549v56h91v588h-91v56h532zM135 796q0 29 18.5 43.5t46.5 14.5q29 0 48 -14.5t19 -43.5q0 -26 -19 -40t-48 -14q-28 0 -46.5 14t-18.5 40zM387 796 q0 29 19 43.5t46 14.5q29 0 48 -14.5t19 -43.5q0 -26 -19 -40t-48 -14q-27 0 -46 14t-19 40z" />
<glyph unicode="&#xcc;" horiz-adv-x="398" d="M41 0zM346 0h-294v56h91v588h-91v56h294v-56h-91v-588h91v-56zM310 793l-13 -24l-256 72v40l123 33z" />
<glyph unicode="&#xcd;" horiz-adv-x="398" d="M52 0zM346 0h-294v56h91v588h-91v56h294v-56h-91v-588h91v-56zM258 914l123 -33v-40l-256 -72l-13 24z" />
<glyph unicode="&#xce;" horiz-adv-x="398" d="M43 0zM346 0h-294v56h91v588h-91v56h294v-56h-91v-588h91v-56zM59 761l-16 20l142 133h31l141 -130l-18 -22l-142 56z" />
<glyph unicode="&#xcf;" horiz-adv-x="398" d="M8 0zM346 0h-294v56h91v588h-91v56h294v-56h-91v-588h91v-56zM8 796q0 29 18.5 43.5t46.5 14.5q29 0 48 -14.5t19 -43.5q0 -26 -19 -40t-48 -14q-28 0 -46.5 14t-18.5 40zM260 796q0 29 19 43.5t46 14.5q29 0 48 -14.5t19 -43.5q0 -26 -19 -40t-48 -14q-27 0 -46 14 t-19 40z" />
<glyph unicode="&#xd0;" horiz-adv-x="782" d="M32 0v56h91v275h-100v54h100v259h-91v56h123q19 0 44.5 1t52.5 2.5t51.5 3t41.5 1.5q93 0 164 -23.5t119 -68t72.5 -109.5t24.5 -148q0 -80 -23 -147t-72 -116.5t-125.5 -77t-182.5 -27.5q-16 0 -37 1.5t-44.5 3t-47.5 3t-45 1.5h-116zM330 652q-28 0 -54 -1t-41 -4v-262 h179v-54h-179v-280q6 -1 20 -1.5t30.5 -1t31.5 -1t21 -0.5q75 0 125 25.5t80.5 68t43.5 99t13 119.5q0 49 -12.5 101t-43.5 95t-83 70t-131 27z" />
<glyph unicode="&#xd1;" horiz-adv-x="820" d="M32 0zM542 700h246v-56h-91v-656h-65l-407 549l-44 77h-4l10 -78v-480h91v-56h-246v56h91v588h-91v56h200l350 -471l52 -86h5l-6 86v415h-91v56zM593 843q-36 -38 -65.5 -53t-58.5 -15q-21 0 -39.5 6.5t-36.5 14t-35 14t-35 6.5q-14 0 -31 -6.5t-35 -23.5l-22 36 q43 42 76 57t62 15q21 0 39 -6t35 -13.5t33.5 -13.5t34.5 -6q14 0 30.5 5t33.5 19z" />
<glyph unicode="&#xd2;" horiz-adv-x="830" d="M57 0zM57 350q0 78 24 144.5t69.5 115t112 75.5t151.5 27t152 -27t113 -75.5t70 -115t24 -144.5t-24 -144.5t-70 -115t-113 -75.5t-152 -27t-151.5 27t-112 75.5t-69.5 115t-24 144.5zM182 350q0 -64 14.5 -120t44.5 -97t75.5 -65t107.5 -24q57 0 99 24t69.5 65t41.5 97 t14 120t-14.5 120t-44.5 97t-75.5 65t-108.5 24q-60 0 -102.5 -24t-69.5 -65t-39 -97t-12 -120zM488 793l-13 -24l-256 72v40l123 33z" />
<glyph unicode="&#xd3;" horiz-adv-x="830" d="M57 0zM57 350q0 78 24 144.5t69.5 115t112 75.5t151.5 27t152 -27t113 -75.5t70 -115t24 -144.5t-24 -144.5t-70 -115t-113 -75.5t-152 -27t-151.5 27t-112 75.5t-69.5 115t-24 144.5zM182 350q0 -64 14.5 -120t44.5 -97t75.5 -65t107.5 -24q57 0 99 24t69.5 65t41.5 97 t14 120t-14.5 120t-44.5 97t-75.5 65t-108.5 24q-60 0 -102.5 -24t-69.5 -65t-39 -97t-12 -120zM462 914l123 -33v-40l-256 -72l-13 24z" />
<glyph unicode="&#xd4;" horiz-adv-x="830" d="M57 0zM57 350q0 78 24 144.5t69.5 115t112 75.5t151.5 27t152 -27t113 -75.5t70 -115t24 -144.5t-24 -144.5t-70 -115t-113 -75.5t-152 -27t-151.5 27t-112 75.5t-69.5 115t-24 144.5zM182 350q0 -64 14.5 -120t44.5 -97t75.5 -65t107.5 -24q57 0 99 24t69.5 65t41.5 97 t14 120t-14.5 120t-44.5 97t-75.5 65t-108.5 24q-60 0 -102.5 -24t-69.5 -65t-39 -97t-12 -120zM273 761l-16 20l142 133h31l141 -130l-18 -22l-142 56z" />
<glyph unicode="&#xd5;" horiz-adv-x="830" d="M57 0zM57 350q0 78 24 144.5t69.5 115t112 75.5t151.5 27t152 -27t113 -75.5t70 -115t24 -144.5t-24 -144.5t-70 -115t-113 -75.5t-152 -27t-151.5 27t-112 75.5t-69.5 115t-24 144.5zM182 350q0 -64 14.5 -120t44.5 -97t75.5 -65t107.5 -24q57 0 99 24t69.5 65t41.5 97 t14 120t-14.5 120t-44.5 97t-75.5 65t-108.5 24q-60 0 -102.5 -24t-69.5 -65t-39 -97t-12 -120zM593 843q-36 -38 -65.5 -53t-58.5 -15q-21 0 -39.5 6.5t-36.5 14t-35 14t-35 6.5q-14 0 -31 -6.5t-35 -23.5l-22 36q43 42 76 57t62 15q21 0 39 -6t35 -13.5t33.5 -13.5 t34.5 -6q14 0 30.5 5t33.5 19z" />
<glyph unicode="&#xd6;" horiz-adv-x="830" d="M57 0zM57 350q0 78 24 144.5t69.5 115t112 75.5t151.5 27t152 -27t113 -75.5t70 -115t24 -144.5t-24 -144.5t-70 -115t-113 -75.5t-152 -27t-151.5 27t-112 75.5t-69.5 115t-24 144.5zM182 350q0 -64 14.5 -120t44.5 -97t75.5 -65t107.5 -24q57 0 99 24t69.5 65t41.5 97 t14 120t-14.5 120t-44.5 97t-75.5 65t-108.5 24q-60 0 -102.5 -24t-69.5 -65t-39 -97t-12 -120zM223 796q0 29 18.5 43.5t46.5 14.5q29 0 48 -14.5t19 -43.5q0 -26 -19 -40t-48 -14q-28 0 -46.5 14t-18.5 40zM475 796q0 29 19 43.5t46 14.5q29 0 48 -14.5t19 -43.5 q0 -26 -19 -40t-48 -14q-27 0 -46 14t-19 40z" />
<glyph unicode="&#xd7;" d="M98 205l156 139l-154 138l44 39l155 -138l156 140l44 -39l-158 -139l160 -142l-44 -40l-159 143l-156 -140z" />
<glyph unicode="&#xd8;" horiz-adv-x="830" d="M57 350q0 78 24 144.5t69.5 115t112 75.5t151.5 27q54 0 100.5 -11.5t85.5 -31.5l52 74l52 -35l-52 -74q59 -49 90 -122t31 -162q0 -78 -24 -144.5t-70 -115t-113 -75.5t-152 -27q-107 0 -187 43l-62 -88l-50 36l61 87q-58 49 -88.5 121.5t-30.5 162.5zM648 350 q0 60 -12.5 112.5t-38.5 93.5l-324 -460q29 -26 66 -40t85 -14q57 0 99 24t69.5 66t41.5 98t14 120zM182 350q0 -60 12 -112t38 -93l323 460q-29 25 -66 39t-84 14q-60 0 -102.5 -24t-69.5 -66t-39 -98t-12 -120z" />
<glyph unicode="&#xd9;" horiz-adv-x="762" d="M12 0zM659 239q0 -64 -19 -110.5t-53.5 -77t-83.5 -45.5t-109 -15q-142 0 -216.5 56.5t-74.5 174.5v422h-91v56h284v-56h-81v-401q0 -52 13 -87.5t37.5 -57t60.5 -31t82 -9.5q88 0 137.5 44t49.5 144v398h-81v56h236v-56h-91v-405v0zM448 793l-13 -24l-256 72v40l123 33z " />
<glyph unicode="&#xda;" horiz-adv-x="762" d="M12 0zM659 239q0 -64 -19 -110.5t-53.5 -77t-83.5 -45.5t-109 -15q-142 0 -216.5 56.5t-74.5 174.5v422h-91v56h284v-56h-81v-401q0 -52 13 -87.5t37.5 -57t60.5 -31t82 -9.5q88 0 137.5 44t49.5 144v398h-81v56h236v-56h-91v-405v0zM515 914l123 -33v-40l-256 -72 l-13 24z" />
<glyph unicode="&#xdb;" horiz-adv-x="762" d="M12 0zM659 239q0 -64 -19 -110.5t-53.5 -77t-83.5 -45.5t-109 -15q-142 0 -216.5 56.5t-74.5 174.5v422h-91v56h284v-56h-81v-401q0 -52 13 -87.5t37.5 -57t60.5 -31t82 -9.5q88 0 137.5 44t49.5 144v398h-81v56h236v-56h-91v-405v0zM262 761l-16 20l142 133h31l141 -130 l-18 -22l-142 56z" />
<glyph unicode="&#xdc;" horiz-adv-x="762" d="M12 0zM659 239q0 -64 -19 -110.5t-53.5 -77t-83.5 -45.5t-109 -15q-142 0 -216.5 56.5t-74.5 174.5v422h-91v56h284v-56h-81v-401q0 -52 13 -87.5t37.5 -57t60.5 -31t82 -9.5q88 0 137.5 44t49.5 144v398h-81v56h236v-56h-91v-405v0zM213 796q0 29 18.5 43.5t46.5 14.5 q29 0 48 -14.5t19 -43.5q0 -26 -19 -40t-48 -14q-28 0 -46.5 14t-18.5 40zM465 796q0 29 19 43.5t46 14.5q29 0 48 -14.5t19 -43.5q0 -26 -19 -40t-48 -14q-27 0 -46 14t-19 40z" />
<glyph unicode="&#xdd;" horiz-adv-x="727" d="M0 0zM478 700h249v-56h-85l-213 -347v-241h91v-56h-294v56h91v240l-226 348h-91v56h302v-56h-84l181 -291l171 291h-92v56zM504 914l123 -33v-40l-256 -72l-13 24z" />
<glyph unicode="&#xde;" horiz-adv-x="666" d="M32 644v56h292v-56h-89v-47q25 2 50.5 3t50.5 1q55 0 107.5 -10.5t93.5 -34.5t66 -64.5t25 -100.5q0 -57 -26 -97.5t-68.5 -67t-98 -39t-114.5 -12.5h-18t-25 0.5t-25 1t-18 1.5v-122h109v-56h-312v56h91v588h-91zM311 545q-27 0 -44.5 -1.5t-31.5 -4.5v-303 q5 -2 15.5 -2.5t22.5 -1.5t23 -1h17q39 0 73.5 9t60.5 28.5t41 49.5t15 73q0 78 -51.5 116t-140.5 38z" />
<glyph unicode="&#xdf;" horiz-adv-x="719" d="M487 589q-1 47 -34 77t-80 30q-34 0 -61.5 -6.5t-47 -25.5t-30 -52.5t-10.5 -88.5v-523h-179v50h74v425h-84v50h84v16q0 60 25 100t62 64t80 34.5t80 10.5q61 0 103.5 -14.5t69 -38.5t38.5 -56t13 -68q-84 -11 -132 -37.5t-48 -74.5q0 -32 20 -56t49.5 -44.5t64.5 -40.5 t64.5 -44.5t49.5 -56t20 -74.5q0 -74 -55 -114.5t-155 -40.5q-24 0 -48 4.5t-45.5 11.5t-39 16.5t-28.5 18.5v92h72v-58q12 -11 37 -21t49 -10q54 0 82 21t28 64q0 28 -20 50t-49.5 42t-64.5 39.5t-64.5 43t-49.5 53.5t-20 70q0 49 41 92t139 70z" />
<glyph unicode="&#xe0;" horiz-adv-x="569" d="M43 0zM464 139q0 -23 1 -46.5t3 -42.5h66v-50h-157l-10 95h-5q-5 -20 -18.5 -39t-34 -34t-48.5 -24t-62 -9t-62.5 10t-49.5 28t-32.5 43.5t-11.5 57.5q0 49 20.5 81t60.5 50.5t100 26.5t140 9q2 16 2 30.5v28.5q0 62 -21 94.5t-75 32.5q-20 0 -43 -2t-42 -12v-92h-90v111 q36 19 85 34t115 15q57 0 91.5 -14.5t53 -38t24 -53t5.5 -58.5q0 -63 -2.5 -120.5t-2.5 -111.5zM245 56q24 0 43 7.5t33.5 19t25 25.5t17.5 27v119q-65 0 -105.5 -8.5t-63.5 -22.5t-31.5 -33.5t-8.5 -41.5q0 -45 24 -68.5t66 -23.5zM364 615l-28 -23l-196 117v41h126z" />
<glyph unicode="&#xe1;" horiz-adv-x="569" d="M43 0zM464 139q0 -23 1 -46.5t3 -42.5h66v-50h-157l-10 95h-5q-5 -20 -18.5 -39t-34 -34t-48.5 -24t-62 -9t-62.5 10t-49.5 28t-32.5 43.5t-11.5 57.5q0 49 20.5 81t60.5 50.5t100 26.5t140 9q2 16 2 30.5v28.5q0 62 -21 94.5t-75 32.5q-20 0 -43 -2t-42 -12v-92h-90v111 q36 19 85 34t115 15q57 0 91.5 -14.5t53 -38t24 -53t5.5 -58.5q0 -63 -2.5 -120.5t-2.5 -111.5zM245 56q24 0 43 7.5t33.5 19t25 25.5t17.5 27v119q-65 0 -105.5 -8.5t-63.5 -22.5t-31.5 -33.5t-8.5 -41.5q0 -45 24 -68.5t66 -23.5zM322 750h126v-41l-196 -117l-28 23z" />
<glyph unicode="&#xe2;" horiz-adv-x="569" d="M43 0zM464 139q0 -23 1 -46.5t3 -42.5h66v-50h-157l-10 95h-5q-5 -20 -18.5 -39t-34 -34t-48.5 -24t-62 -9t-62.5 10t-49.5 28t-32.5 43.5t-11.5 57.5q0 49 20.5 81t60.5 50.5t100 26.5t140 9q2 16 2 30.5v28.5q0 62 -21 94.5t-75 32.5q-20 0 -43 -2t-42 -12v-92h-90v111 q36 19 85 34t115 15q57 0 91.5 -14.5t53 -38t24 -53t5.5 -58.5q0 -63 -2.5 -120.5t-2.5 -111.5zM245 56q24 0 43 7.5t33.5 19t25 25.5t17.5 27v119q-65 0 -105.5 -8.5t-63.5 -22.5t-31.5 -33.5t-8.5 -41.5q0 -45 24 -68.5t66 -23.5zM178 619l-32 17l125 196h29l126 -195 l-32 -18l-113 112z" />
<glyph unicode="&#xe3;" horiz-adv-x="569" d="M43 0zM464 139q0 -23 1 -46.5t3 -42.5h66v-50h-157l-10 95h-5q-5 -20 -18.5 -39t-34 -34t-48.5 -24t-62 -9t-62.5 10t-49.5 28t-32.5 43.5t-11.5 57.5q0 49 20.5 81t60.5 50.5t100 26.5t140 9q2 16 2 30.5v28.5q0 62 -21 94.5t-75 32.5q-20 0 -43 -2t-42 -12v-92h-90v111 q36 19 85 34t115 15q57 0 91.5 -14.5t53 -38t24 -53t5.5 -58.5q0 -63 -2.5 -120.5t-2.5 -111.5zM245 56q24 0 43 7.5t33.5 19t25 25.5t17.5 27v119q-65 0 -105.5 -8.5t-63.5 -22.5t-31.5 -33.5t-8.5 -41.5q0 -45 24 -68.5t66 -23.5zM446 705q-36 -34 -66.5 -46.5 t-55.5 -12.5q-20 0 -38 5.5t-35 12t-33 12t-33 5.5q-14 0 -29.5 -5.5t-33.5 -20.5l-22 32q42 36 74.5 49t58.5 13q20 0 37.5 -5.5t33.5 -11.5t32 -11.5t33 -5.5q14 0 29 4.5t32 16.5z" />
<glyph unicode="&#xe4;" horiz-adv-x="569" d="M43 0zM464 139q0 -23 1 -46.5t3 -42.5h66v-50h-157l-10 95h-5q-5 -20 -18.5 -39t-34 -34t-48.5 -24t-62 -9t-62.5 10t-49.5 28t-32.5 43.5t-11.5 57.5q0 49 20.5 81t60.5 50.5t100 26.5t140 9q2 16 2 30.5v28.5q0 62 -21 94.5t-75 32.5q-20 0 -43 -2t-42 -12v-92h-90v111 q36 19 85 34t115 15q57 0 91.5 -14.5t53 -38t24 -53t5.5 -58.5q0 -63 -2.5 -120.5t-2.5 -111.5zM245 56q24 0 43 7.5t33.5 19t25 25.5t17.5 27v119q-65 0 -105.5 -8.5t-63.5 -22.5t-31.5 -33.5t-8.5 -41.5q0 -45 24 -68.5t66 -23.5zM85 688q0 29 17.5 46.5t46.5 17.5 t46.5 -17.5t17.5 -46.5q0 -27 -17.5 -44.5t-46.5 -17.5t-46.5 17.5t-17.5 44.5zM331 688q0 29 18.5 46.5t46.5 17.5q29 0 46 -17.5t17 -46.5q0 -27 -17 -44.5t-46 -17.5q-28 0 -46.5 17.5t-18.5 44.5z" />
<glyph unicode="&#xe5;" horiz-adv-x="569" d="M43 0zM464 139q0 -23 1 -46.5t3 -42.5h66v-50h-157l-10 95h-5q-5 -20 -18.5 -39t-34 -34t-48.5 -24t-62 -9t-62.5 10t-49.5 28t-32.5 43.5t-11.5 57.5q0 49 20.5 81t60.5 50.5t100 26.5t140 9q2 16 2 30.5v28.5q0 62 -21 94.5t-75 32.5q-20 0 -43 -2t-42 -12v-92h-90v111 q36 19 85 34t115 15q57 0 91.5 -14.5t53 -38t24 -53t5.5 -58.5q0 -63 -2.5 -120.5t-2.5 -111.5zM245 56q24 0 43 7.5t33.5 19t25 25.5t17.5 27v119q-65 0 -105.5 -8.5t-63.5 -22.5t-31.5 -33.5t-8.5 -41.5q0 -45 24 -68.5t66 -23.5zM162 717q0 43 32 72.5t81 29.5 q45 0 75.5 -26.5t30.5 -72.5q0 -21 -9 -39t-23.5 -31t-34 -20.5t-40.5 -7.5q-51 0 -81.5 25.5t-30.5 69.5zM222 719q0 -26 15 -39.5t33 -13.5q22 0 36.5 12t14.5 38q0 29 -14 44t-36 15q-26 0 -37.5 -15t-11.5 -41z" />
<glyph unicode="&#xe6;" horiz-adv-x="875" d="M43 0zM245 57q24 0 43 7.5t33.5 18.5t24.5 25t17 27v119q-64 0 -104.5 -8.5t-63.5 -22.5t-31.5 -33.5t-8.5 -41.5q0 -45 24 -68t66 -23zM391 105q-8 -13 -21 -32.5t-34 -38t-51.5 -31.5t-72.5 -13q-78 0 -123.5 37.5t-45.5 100.5q0 49 20 81t60.5 50.5t100 26.5t139.5 9 q3 31 3 59q0 62 -21 94.5t-75 32.5q-20 0 -43 -2t-42 -12v-92h-90v111q36 19 85 34t115 15q60 0 94.5 -15.5t52.5 -40.5q28 30 73 43t94 13q40 0 78.5 -10t68.5 -33t48.5 -61t18.5 -94q0 -17 -2 -36t-6 -40h-347q0 -44 11.5 -80t34.5 -62t58 -40.5t83 -14.5q39 0 72.5 13 t53.5 30l27 -38q-26 -37 -73.5 -58.5t-110.5 -21.5q-85 0 -143 30.5t-90 85.5zM605 488q-31 0 -54.5 -9t-40.5 -30t-27 -55.5t-13 -85.5h241q1 9 1.5 18.5t0.5 17.5q0 66 -26.5 105t-81.5 39z" />
<glyph unicode="&#xe7;" horiz-adv-x="523" d="M482 64q-21 -29 -66 -52t-105 -23h-4l-23 -50q63 -2 92 -17t29 -49q0 -32 -17.5 -51t-44.5 -29.5t-60 -13.5t-64 -3v32q21 1 38.5 3t29.5 7t18.5 14t6.5 25q0 26 -23 32t-69 10l38 93q-108 14 -160.5 86t-52.5 184q0 133 70.5 203t191.5 70q55 0 91 -7t66 -22v-130h-90 v96q-15 9 -60 9q-38 0 -67 -11t-49 -36t-30 -67t-10 -103q0 -40 11 -76.5t33 -64t55.5 -43.5t78.5 -16q24 0 42.5 3.5t32.5 9t25 12.5t21 15z" />
<glyph unicode="&#xe8;" horiz-adv-x="566" d="M45 0zM499 69q-26 -37 -73.5 -58.5t-110.5 -21.5q-66 0 -116.5 19.5t-84.5 55t-51.5 86t-17.5 112.5q0 134 67 203.5t188 69.5q40 0 78.5 -10t68.5 -33t48.5 -61t18.5 -94q0 -17 -2 -36t-6 -40h-348q0 -44 11.5 -80t35 -62t58.5 -40.5t83 -14.5q39 0 72.5 13t53.5 30z M296 488q-31 0 -54.5 -9t-40.5 -30t-27 -55.5t-13 -85.5h241q1 9 1.5 18.5t0.5 17.5q0 66 -26.5 105t-81.5 39zM373 615l-28 -23l-196 117v41h126z" />
<glyph unicode="&#xe9;" horiz-adv-x="566" d="M45 0zM499 69q-26 -37 -73.5 -58.5t-110.5 -21.5q-66 0 -116.5 19.5t-84.5 55t-51.5 86t-17.5 112.5q0 134 67 203.5t188 69.5q40 0 78.5 -10t68.5 -33t48.5 -61t18.5 -94q0 -17 -2 -36t-6 -40h-348q0 -44 11.5 -80t35 -62t58.5 -40.5t83 -14.5q39 0 72.5 13t53.5 30z M296 488q-31 0 -54.5 -9t-40.5 -30t-27 -55.5t-13 -85.5h241q1 9 1.5 18.5t0.5 17.5q0 66 -26.5 105t-81.5 39zM339 750h126v-41l-196 -117l-28 23z" />
<glyph unicode="&#xea;" horiz-adv-x="566" d="M45 0zM499 69q-26 -37 -73.5 -58.5t-110.5 -21.5q-66 0 -116.5 19.5t-84.5 55t-51.5 86t-17.5 112.5q0 134 67 203.5t188 69.5q40 0 78.5 -10t68.5 -33t48.5 -61t18.5 -94q0 -17 -2 -36t-6 -40h-348q0 -44 11.5 -80t35 -62t58.5 -40.5t83 -14.5q39 0 72.5 13t53.5 30z M296 488q-31 0 -54.5 -9t-40.5 -30t-27 -55.5t-13 -85.5h241q1 9 1.5 18.5t0.5 17.5q0 66 -26.5 105t-81.5 39zM187 619l-32 17l125 196h29l126 -195l-32 -18l-113 112z" />
<glyph unicode="&#xeb;" horiz-adv-x="566" d="M45 0zM499 69q-26 -37 -73.5 -58.5t-110.5 -21.5q-66 0 -116.5 19.5t-84.5 55t-51.5 86t-17.5 112.5q0 134 67 203.5t188 69.5q40 0 78.5 -10t68.5 -33t48.5 -61t18.5 -94q0 -17 -2 -36t-6 -40h-348q0 -44 11.5 -80t35 -62t58.5 -40.5t83 -14.5q39 0 72.5 13t53.5 30z M296 488q-31 0 -54.5 -9t-40.5 -30t-27 -55.5t-13 -85.5h241q1 9 1.5 18.5t0.5 17.5q0 66 -26.5 105t-81.5 39zM103 688q0 29 17.5 46.5t46.5 17.5t46.5 -17.5t17.5 -46.5q0 -27 -17.5 -44.5t-46.5 -17.5t-46.5 17.5t-17.5 44.5zM349 688q0 29 18.5 46.5t46.5 17.5 q29 0 46 -17.5t17 -46.5q0 -27 -17 -44.5t-46 -17.5q-28 0 -46.5 17.5t-18.5 44.5z" />
<glyph unicode="&#xec;" horiz-adv-x="339" d="M11 0zM298 0h-253v50h74v425h-74v50h179v-475h74v-50zM235 615l-28 -23l-196 117v41h126z" />
<glyph unicode="&#xed;" horiz-adv-x="339" d="M45 0zM298 0h-253v50h74v425h-74v50h179v-475h74v-50zM201 750h126v-41l-196 -117l-28 23z" />
<glyph unicode="&#xee;" horiz-adv-x="339" d="M30 0zM298 0h-253v50h74v425h-74v50h179v-475h74v-50zM62 619l-32 17l125 196h29l126 -195l-32 -18l-113 112z" />
<glyph unicode="&#xef;" horiz-adv-x="339" d="M0 0zM298 0h-253v50h74v425h-74v50h179v-475h74v-50zM-17 688q0 29 17.5 46.5t46.5 17.5t46.5 -17.5t17.5 -46.5q0 -27 -17.5 -44.5t-46.5 -17.5t-46.5 17.5t-17.5 44.5zM229 688q0 29 18.5 46.5t46.5 17.5q29 0 46 -17.5t17 -46.5q0 -27 -17 -44.5t-46 -17.5 q-28 0 -46.5 17.5t-18.5 44.5z" />
<glyph unicode="&#xf0;" horiz-adv-x="603" d="M233 600l89 53q-45 39 -124 65l22 44q45 -8 87.5 -29.5t71.5 -42.5l101 64l28 -41l-91 -58q28 -29 54 -65.5t45.5 -81t31.5 -96t12 -109.5q0 -68 -16.5 -126t-49.5 -100t-82.5 -66t-116.5 -24q-62 0 -111 20t-83 55t-52.5 84t-18.5 108q0 67 21.5 116t56 81.5t78 48 t88.5 15.5q60 0 99 -11t64 -26q-14 39 -32 73.5t-50 63.5l-92 -56zM143 254q0 -43 10.5 -82t30.5 -69t50 -48t68 -18q73 0 113 67.5t40 183.5q0 55 -4.5 88t-8.5 47q-19 14 -56 25t-88 11q-34 0 -62.5 -12t-49 -37t-32 -64t-11.5 -92z" />
<glyph unicode="&#xf1;" horiz-adv-x="670" d="M35 0zM651 0h-245v50h66v251q0 79 -24 123t-88 44q-28 0 -51.5 -9t-42 -24t-32 -35t-20.5 -42v-308h66v-50h-245v50h74v425h-74v50h179v-104h1q23 48 67.5 81t107.5 33q45 0 80 -9.5t58.5 -34.5t36 -67t12.5 -107v-267h74v-50zM509 705q-36 -34 -66.5 -46.5t-55.5 -12.5 q-20 0 -38 5.5t-35 12t-33 12t-33 5.5q-14 0 -29.5 -5.5t-33.5 -20.5l-22 32q42 36 74.5 49t58.5 13q20 0 37.5 -5.5t33.5 -11.5t32 -11.5t33 -5.5q14 0 29 4.5t32 16.5z" />
<glyph unicode="&#xf2;" horiz-adv-x="622" d="M45 0zM45 262q0 66 19 117t53.5 85.5t84 52.5t109.5 18q70 0 120.5 -19.5t82.5 -55t47.5 -86t15.5 -112.5q0 -66 -18.5 -116.5t-53 -85t-84 -52.5t-110.5 -18q-68 0 -118 19.5t-83 55t-49 85.5t-16 112zM158 262q0 -48 9 -89t29.5 -71t53 -47.5t79.5 -17.5q59 0 97 54 t38 171q0 48 -9 89.5t-28.5 72t-50 47.5t-74.5 17q-66 0 -105 -54t-39 -172zM391 615l-28 -23l-196 117v41h126z" />
<glyph unicode="&#xf3;" horiz-adv-x="622" d="M45 0zM45 262q0 66 19 117t53.5 85.5t84 52.5t109.5 18q70 0 120.5 -19.5t82.5 -55t47.5 -86t15.5 -112.5q0 -66 -18.5 -116.5t-53 -85t-84 -52.5t-110.5 -18q-68 0 -118 19.5t-83 55t-49 85.5t-16 112zM158 262q0 -48 9 -89t29.5 -71t53 -47.5t79.5 -17.5q59 0 97 54 t38 171q0 48 -9 89.5t-28.5 72t-50 47.5t-74.5 17q-66 0 -105 -54t-39 -172zM349 750h126v-41l-196 -117l-28 23z" />
<glyph unicode="&#xf4;" horiz-adv-x="622" d="M45 0zM45 262q0 66 19 117t53.5 85.5t84 52.5t109.5 18q70 0 120.5 -19.5t82.5 -55t47.5 -86t15.5 -112.5q0 -66 -18.5 -116.5t-53 -85t-84 -52.5t-110.5 -18q-68 0 -118 19.5t-83 55t-49 85.5t-16 112zM158 262q0 -48 9 -89t29.5 -71t53 -47.5t79.5 -17.5q59 0 97 54 t38 171q0 48 -9 89.5t-28.5 72t-50 47.5t-74.5 17q-66 0 -105 -54t-39 -172zM203 619l-32 17l125 196h29l126 -195l-32 -18l-113 112z" />
<glyph unicode="&#xf5;" horiz-adv-x="622" d="M45 0zM45 262q0 66 19 117t53.5 85.5t84 52.5t109.5 18q70 0 120.5 -19.5t82.5 -55t47.5 -86t15.5 -112.5q0 -66 -18.5 -116.5t-53 -85t-84 -52.5t-110.5 -18q-68 0 -118 19.5t-83 55t-49 85.5t-16 112zM158 262q0 -48 9 -89t29.5 -71t53 -47.5t79.5 -17.5q59 0 97 54 t38 171q0 48 -9 89.5t-28.5 72t-50 47.5t-74.5 17q-66 0 -105 -54t-39 -172zM484 705q-36 -34 -66.5 -46.5t-55.5 -12.5q-20 0 -38 5.5t-35 12t-33 12t-33 5.5q-14 0 -29.5 -5.5t-33.5 -20.5l-22 32q42 36 74.5 49t58.5 13q20 0 37.5 -5.5t33.5 -11.5t32 -11.5t33 -5.5 q14 0 29 4.5t32 16.5z" />
<glyph unicode="&#xf6;" horiz-adv-x="622" d="M45 0zM45 262q0 66 19 117t53.5 85.5t84 52.5t109.5 18q70 0 120.5 -19.5t82.5 -55t47.5 -86t15.5 -112.5q0 -66 -18.5 -116.5t-53 -85t-84 -52.5t-110.5 -18q-68 0 -118 19.5t-83 55t-49 85.5t-16 112zM158 262q0 -48 9 -89t29.5 -71t53 -47.5t79.5 -17.5q59 0 97 54 t38 171q0 48 -9 89.5t-28.5 72t-50 47.5t-74.5 17q-66 0 -105 -54t-39 -172zM124 688q0 29 17.5 46.5t46.5 17.5t46.5 -17.5t17.5 -46.5q0 -27 -17.5 -44.5t-46.5 -17.5t-46.5 17.5t-17.5 44.5zM370 688q0 29 18.5 46.5t46.5 17.5q29 0 46 -17.5t17 -46.5q0 -27 -17 -44.5 t-46 -17.5q-28 0 -46.5 17.5t-18.5 44.5z" />
<glyph unicode="&#xf7;" d="M47 373h505v-54h-505v54zM222 536q0 31 21 49t56 18t57 -18t22 -49q0 -30 -22 -48t-57 -18t-56 18t-21 48zM222 155q0 31 21 49t56 18t57 -18t22 -49q0 -30 -22 -48t-57 -18t-56 18t-21 48z" />
<glyph unicode="&#xf8;" horiz-adv-x="622" d="M130 43q-43 37 -64 93t-21 126q0 66 19 117t53.5 85.5t84 52.5t109.5 18q43 0 79 -6.5t64 -21.5l51 74l45 -29l-53 -73q42 -38 61 -92.5t19 -124.5q0 -66 -18.5 -116.5t-53 -85t-84 -52.5t-110.5 -18q-40 0 -74.5 6t-62.5 20l-56 -80l-43 28zM158 262q0 -40 6.5 -75 t21.5 -64l224 322q-20 23 -46.5 33t-61.5 10q-66 0 -105 -54t-39 -172zM464 262q0 38 -6 72t-19 62l-223 -320q20 -21 48 -30t66 -9q59 0 96.5 54t37.5 171z" />
<glyph unicode="&#xf9;" horiz-adv-x="647" d="M19 0zM87 208q0 66 3 135t3 132h-74v50h178q-2 -78 -3.5 -149.5t-1.5 -148.5q0 -41 4.5 -72.5t17 -53.5t34.5 -33t56 -11q50 0 84 32t52 86v300h-73v50h178v-475h74v-50h-167l-7 114h-5q-5 -21 -19.5 -43t-36.5 -40t-51 -29.5t-63 -11.5q-45 0 -79 9.5t-57 34.5t-35 67 t-12 107zM403 615l-28 -23l-196 117v41h126z" />
<glyph unicode="&#xfa;" horiz-adv-x="647" d="M19 0zM87 208q0 66 3 135t3 132h-74v50h178q-2 -78 -3.5 -149.5t-1.5 -148.5q0 -41 4.5 -72.5t17 -53.5t34.5 -33t56 -11q50 0 84 32t52 86v300h-73v50h178v-475h74v-50h-167l-7 114h-5q-5 -21 -19.5 -43t-36.5 -40t-51 -29.5t-63 -11.5q-45 0 -79 9.5t-57 34.5t-35 67 t-12 107zM358 750h126v-41l-196 -117l-28 23z" />
<glyph unicode="&#xfb;" horiz-adv-x="647" d="M19 0zM87 208q0 66 3 135t3 132h-74v50h178q-2 -78 -3.5 -149.5t-1.5 -148.5q0 -41 4.5 -72.5t17 -53.5t34.5 -33t56 -11q50 0 84 32t52 86v300h-73v50h178v-475h74v-50h-167l-7 114h-5q-5 -21 -19.5 -43t-36.5 -40t-51 -29.5t-63 -11.5q-45 0 -79 9.5t-57 34.5t-35 67 t-12 107zM215 619l-32 17l125 196h29l126 -195l-32 -18l-113 112z" />
<glyph unicode="&#xfc;" horiz-adv-x="647" d="M19 0zM87 208q0 66 3 135t3 132h-74v50h178q-2 -78 -3.5 -149.5t-1.5 -148.5q0 -41 4.5 -72.5t17 -53.5t34.5 -33t56 -11q50 0 84 32t52 86v300h-73v50h178v-475h74v-50h-167l-7 114h-5q-5 -21 -19.5 -43t-36.5 -40t-51 -29.5t-63 -11.5q-45 0 -79 9.5t-57 34.5t-35 67 t-12 107zM134 688q0 29 17.5 46.5t46.5 17.5t46.5 -17.5t17.5 -46.5q0 -27 -17.5 -44.5t-46.5 -17.5t-46.5 17.5t-17.5 44.5zM380 688q0 29 18.5 46.5t46.5 17.5q29 0 46 -17.5t17 -46.5q0 -27 -17 -44.5t-46 -17.5q-28 0 -46.5 17.5t-18.5 44.5z" />
<glyph unicode="&#xfd;" horiz-adv-x="568" d="M0 0zM47 475h-59v50h258v-50h-84l136 -332l20 -76h5l19 77l107 331h-61v50h192v-50h-64l-164 -475q-14 -41 -30.5 -75.5t-32 -61t-30 -43t-24.5 -20.5h-101v90h102q7 8 13 16t12 20t13 29.5t16 44.5h-37zM332 750h126v-41l-196 -117l-28 23z" />
<glyph unicode="&#xfe;" horiz-adv-x="636" d="M287 -200h-253v50h74v850h-74v50h179v-330h1q22 53 62.5 84t106.5 31q99 0 153.5 -61t54.5 -200q0 -66 -18.5 -119t-53 -90t-83 -56.5t-108.5 -19.5q-20 0 -35.5 1t-28.5 3t-25.5 6t-25.5 9v-158h74v-50zM344 468q-54 0 -85.5 -30.5t-45.5 -86.5v-293q20 -13 44.5 -17.5 t65.5 -4.5q37 0 66 17.5t49 49t30.5 75t10.5 96.5q0 43 -7 78.5t-22.5 61t-41.5 40t-64 14.5z" />
<glyph unicode="&#xff;" horiz-adv-x="568" d="M0 0zM47 475h-59v50h258v-50h-84l136 -332l20 -76h5l19 77l107 331h-61v50h192v-50h-64l-164 -475q-14 -41 -30.5 -75.5t-32 -61t-30 -43t-24.5 -20.5h-101v90h102q7 8 13 16t12 20t13 29.5t16 44.5h-37zM108 688q0 29 17.5 46.5t46.5 17.5t46.5 -17.5t17.5 -46.5 q0 -27 -17.5 -44.5t-46.5 -17.5t-46.5 17.5t-17.5 44.5zM354 688q0 29 18.5 46.5t46.5 17.5q29 0 46 -17.5t17 -46.5q0 -27 -17 -44.5t-46 -17.5q-28 0 -46.5 17.5t-18.5 44.5z" />
<glyph unicode="&#x131;" horiz-adv-x="339" d="M298 0h-253v50h74v425h-74v50h179v-475h74v-50z" />
<glyph unicode="&#x152;" horiz-adv-x="1064" d="M414 712q26 0 61 -3t67 -9h438v-164h-64v86l-20 22h-242v-259h169l15 15v42h64v-171h-64v42l-15 16h-169v-273h262l20 20v98h64v-174h-457q-29 -5 -63.5 -8.5t-65.5 -3.5q-85 0 -151.5 27t-112 75.5t-69.5 115t-24 144.5t24 144.5t69.5 115t112 75.5t151.5 27zM424 42 q29 0 59.5 4.5t58.5 15.5v571q-29 11 -64 18t-73 7q-60 0 -102.5 -24t-69.5 -66t-39 -98t-12 -120t14.5 -120t44.5 -98t75.5 -66t107.5 -24z" />
<glyph unicode="&#x153;" horiz-adv-x="984" d="M158 262q0 -48 9 -89t29.5 -71t53.5 -47.5t80 -17.5q59 0 97 54t38 171q0 48 -9 89.5t-28.5 72t-50.5 47.5t-75 17q-66 0 -105 -54t-39 -172zM521 79q-20 -25 -44.5 -42t-52 -27.5t-56.5 -15t-57 -4.5q-68 0 -118 19.5t-83 55t-49 85.5t-16 112q0 66 19 117t53.5 85.5 t84 52.5t109.5 18q30 0 60.5 -4.5t57.5 -15t50 -27t40 -40.5q14 22 36.5 38.5t49.5 27.5t56 16t58 5q40 0 78 -9.5t68 -32.5t48.5 -61t18.5 -95q0 -17 -2 -36t-6 -40h-348q0 -44 11.5 -81.5t35 -64.5t59 -42.5t83.5 -15.5q38 0 71.5 16t55.5 40l30 -35q-9 -18 -28.5 -34 t-44.5 -28t-55 -19t-60 -7q-31 0 -63.5 6t-62 17.5t-52.5 28t-35 37.5zM715 488q-31 0 -55 -9t-41 -30t-27 -55.5t-13 -85.5h242q1 9 1 18v17q0 67 -26 106t-81 39z" />
<glyph unicode="&#x178;" horiz-adv-x="727" d="M0 0zM478 700h249v-56h-85l-213 -347v-241h91v-56h-294v56h91v240l-226 348h-91v56h302v-56h-84l181 -291l171 291h-92v56zM199 796q0 29 18.5 43.5t46.5 14.5q29 0 48 -14.5t19 -43.5q0 -26 -19 -40t-48 -14q-28 0 -46.5 14t-18.5 40zM451 796q0 29 19 43.5t46 14.5 q29 0 48 -14.5t19 -43.5q0 -26 -19 -40t-48 -14q-27 0 -46 14t-19 40z" />
<glyph unicode="&#x2c6;" horiz-adv-x="400" d="M92 619l-32 17l125 196h29l126 -195l-32 -18l-113 112z" />
<glyph unicode="&#x2da;" horiz-adv-x="339" d="M60 717q0 43 32 72.5t81 29.5q45 0 75.5 -26.5t30.5 -72.5q0 -21 -9 -39t-23.5 -31t-34 -20.5t-40.5 -7.5q-51 0 -81.5 25.5t-30.5 69.5zM120 719q0 -26 15 -39.5t33 -13.5q22 0 36.5 12t14.5 38q0 29 -14 44t-36 15q-26 0 -37.5 -15t-11.5 -41z" />
<glyph unicode="&#x2dc;" horiz-adv-x="466" d="M406 705q-36 -34 -66.5 -46.5t-55.5 -12.5q-20 0 -38 5.5t-35 12t-33 12t-33 5.5q-14 0 -29.5 -5.5t-33.5 -20.5l-22 32q42 36 74.5 49t58.5 13q20 0 37.5 -5.5t33.5 -11.5t32 -11.5t33 -5.5q14 0 29 4.5t32 16.5z" />
<glyph unicode="&#x4d4;" horiz-adv-x="1027" d="M943 700v-164h-64v86l-20 22h-242v-259h169l15 15v42h64v-171h-64v42l-15 16h-169v-273h262l20 20v98h64v-174h-546v56h88v197h-218l-129 -197h94v-56h-252v56h82l390 588h-60v56h531zM321 309h184v301h-2l-45 -93z" />
<glyph unicode="&#x4d5;" horiz-adv-x="875" d="M245 57q24 0 43 7.5t33.5 18.5t24.5 25t17 27v119q-64 0 -104.5 -8.5t-63.5 -22.5t-31.5 -33.5t-8.5 -41.5q0 -45 24 -68t66 -23zM391 105q-8 -13 -21 -32.5t-34 -38t-51.5 -31.5t-72.5 -13q-78 0 -123.5 37.5t-45.5 100.5q0 49 20 81t60.5 50.5t100 26.5t139.5 9 q3 31 3 59q0 62 -21 94.5t-75 32.5q-20 0 -43 -2t-42 -12v-92h-90v111q36 19 85 34t115 15q60 0 94.5 -15.5t52.5 -40.5q28 30 73 43t94 13q40 0 78.5 -10t68.5 -33t48.5 -61t18.5 -94q0 -17 -2 -36t-6 -40h-347q0 -44 11.5 -80t34.5 -62t58 -40.5t83 -14.5q39 0 72.5 13 t53.5 30l27 -38q-26 -37 -73.5 -58.5t-110.5 -21.5q-85 0 -143 30.5t-90 85.5zM605 488q-31 0 -54.5 -9t-40.5 -30t-27 -55.5t-13 -85.5h241q1 9 1.5 18.5t0.5 17.5q0 66 -26.5 105t-81.5 39z" />
<glyph unicode="&#x2000;" horiz-adv-x="457" />
<glyph unicode="&#x2001;" horiz-adv-x="914" />
<glyph unicode="&#x2002;" horiz-adv-x="457" />
<glyph unicode="&#x2003;" horiz-adv-x="914" />
<glyph unicode="&#x2004;" horiz-adv-x="304" />
<glyph unicode="&#x2005;" horiz-adv-x="228" />
<glyph unicode="&#x2006;" horiz-adv-x="152" />
<glyph unicode="&#x2007;" horiz-adv-x="152" />
<glyph unicode="&#x2008;" horiz-adv-x="114" />
<glyph unicode="&#x2009;" horiz-adv-x="182" />
<glyph unicode="&#x200a;" horiz-adv-x="50" />
<glyph unicode="&#x2010;" horiz-adv-x="475" d="M80 314h316v-64h-316v64z" />
<glyph unicode="&#x2011;" horiz-adv-x="475" d="M80 314h316v-64h-316v64z" />
<glyph unicode="&#x2012;" horiz-adv-x="475" d="M80 314h316v-64h-316v64z" />
<glyph unicode="&#x2013;" horiz-adv-x="703" d="M81 314h540v-64h-540v64z" />
<glyph unicode="&#x2014;" horiz-adv-x="994" d="M81 314h832v-64h-832v64z" />
<glyph unicode="&#x2018;" horiz-adv-x="328" d="M251 807q-21 -6 -38 -19t-29 -29.5t-18 -35.5t-4 -37h58q8 -11 13 -25t5 -25q0 -17 -5 -32.5t-13 -27.5h-112q-16 37 -18 71q0 57 21.5 95.5t53 62t68.5 31.5z" />
<glyph unicode="&#x2019;" horiz-adv-x="328" d="M75 423zM75 452q21 6 38 19t29 29.5t17.5 35.5t4.5 37h-57q-8 12 -13 24.5t-5 26.5q0 12 2.5 22.5t6.5 19.5t9 17h111q8 -20 13 -39t5 -39q0 -28 -9.5 -59t-28.5 -55q-15 -20 -41.5 -40t-63.5 -28z" />
<glyph unicode="&#x201a;" horiz-adv-x="328" d="M75 -121q21 6 38 19t29 29.5t17.5 35.5t4.5 37h-57q-8 12 -13 24.5t-5 26.5q0 12 2.5 22.5t6.5 19.5t9 17h111q8 -20 13 -39t5 -39q0 -28 -9.5 -59t-28.5 -55q-15 -20 -41.5 -40t-63.5 -28z" />
<glyph unicode="&#x201c;" horiz-adv-x="535" d="M90 576zM457 807q-21 -6 -38 -19t-29 -29.5t-18 -35.5t-4 -37h58q8 -11 13 -25t5 -25q0 -17 -5 -32.5t-13 -27.5h-112q-16 37 -18 71q0 57 21.5 95.5t53 62t68.5 31.5zM251 807q-21 -6 -38 -19t-29 -29.5t-18 -35.5t-4 -37h58q8 -11 13 -25t5 -25q0 -17 -5 -32.5 t-13 -27.5h-112q-16 37 -18 71q0 57 21.5 95.5t53 62t68.5 31.5z" />
<glyph unicode="&#x201d;" horiz-adv-x="535" d="M75 423zM281 452q21 6 38 19t29 29.5t17.5 35.5t4.5 37h-57q-8 12 -13 24.5t-5 26.5q0 12 2.5 22.5t6.5 19.5t9 17h111q8 -20 13 -39t5 -39q0 -28 -9.5 -59t-28.5 -55q-15 -20 -41.5 -40t-63.5 -28zM75 452q21 6 38 19t29 29.5t17.5 35.5t4.5 37h-57q-8 12 -13 24.5 t-5 26.5q0 12 2.5 22.5t6.5 19.5t9 17h111q8 -20 13 -39t5 -39q0 -28 -9.5 -59t-28.5 -55q-15 -20 -41.5 -40t-63.5 -28z" />
<glyph unicode="&#x201e;" horiz-adv-x="535" d="M75 0zM281 -121q21 6 38 19t29 29.5t17.5 35.5t4.5 37h-57q-8 12 -13 24.5t-5 26.5q0 12 2.5 22.5t6.5 19.5t9 17h111q8 -20 13 -39t5 -39q0 -28 -9.5 -59t-28.5 -55q-15 -20 -41.5 -40t-63.5 -28zM75 -121q21 6 38 19t29 29.5t17.5 35.5t4.5 37h-57q-8 12 -13 24.5 t-5 26.5q0 12 2.5 22.5t6.5 19.5t9 17h111q8 -20 13 -39t5 -39q0 -28 -9.5 -59t-28.5 -55q-15 -20 -41.5 -40t-63.5 -28z" />
<glyph unicode="&#x2022;" horiz-adv-x="514" d="M98 311q0 31 12.5 57.5t34 45t50.5 29t62 10.5t62 -9.5t50 -28t33.5 -45t12.5 -59.5t-12.5 -59.5t-33.5 -44.5t-50 -27.5t-62 -9.5t-62 9.5t-50.5 27.5t-34 44.5t-12.5 59.5z" />
<glyph unicode="&#x2026;" horiz-adv-x="997" d="M762 58q0 31 21 49t56 18t57 -18t22 -49q0 -30 -22 -48t-57 -18t-56 18t-21 48zM421 58q0 31 21 49t56 18t57 -18t22 -49q0 -30 -22 -48t-57 -18t-56 18t-21 48zM80 58q0 31 21 49t56 18t57 -18t22 -49q0 -30 -22 -48t-57 -18t-56 18t-21 48z" />
<glyph unicode="&#x202f;" horiz-adv-x="182" />
<glyph unicode="&#x2039;" horiz-adv-x="316" d="M27 259l195 206l28 -20l-117 -179l124 -189l-26 -20z" />
<glyph unicode="&#x203a;" horiz-adv-x="316" d="M88 57l-29 21l125 183l-119 185l29 19l196 -205z" />
<glyph unicode="&#x2044;" horiz-adv-x="356" d="M484 714l41 -38l-657 -686l-39 39z" />
<glyph unicode="&#x205f;" horiz-adv-x="228" />
<glyph unicode="&#x2081;" horiz-adv-x="480" d="M410 -100h-315v50h112v309l-99 -37l-22 45l121 53h91v-370h112v-50z" />
<glyph unicode="&#x2082;" horiz-adv-x="480" d="M143 153h-64v124q17 11 33 20t35 16t43 10.5t58 3.5q43 0 72.5 -9.5t47.5 -25t26 -36.5t8 -45q0 -33 -18 -66.5t-51 -65.5t-78.5 -61.5t-99.5 -54.5v-6l35 6h172v68h64v-131h-360v63q46 23 89 50t76.5 57t54 62t20.5 65q0 19 -4 33.5t-14.5 25t-28.5 16t-46 5.5 q-20 0 -37.5 -3t-32.5 -11v-110z" />
<glyph unicode="&#x2083;" horiz-adv-x="480" d="M231 -60q27 0 46 7t31 18t17.5 24.5t5.5 26.5q0 42 -26.5 60t-87.5 18h-38v32l146 144h-190v-94h-64v144h334v-50l-147 -131v-1l35 4q27 0 51 -7.5t42.5 -22t29.5 -36.5t11 -51q0 -65 -56.5 -98.5t-152.5 -33.5q-46 0 -89 16t-72 35v72h90v-53q10 -6 30 -14.5t54 -8.5z " />
<glyph unicode="&#x2084;" horiz-adv-x="480" d="M433 -100h-240v50h89v69h-250v50l250 251h84v-251h95v-50h-95v-69h67v-50zM282 244l-179 -175h179v175z" />
<glyph unicode="&#x20ac;" d="M-23 440h78q11 71 41 122t75 84t102 48.5t122 15.5q37 0 65 -2t50.5 -6.5t41 -11t37.5 -14.5v-172h-64v116l-20 23q-13 5 -29.5 9t-48.5 4q-109 0 -175.5 -51t-84.5 -165h335l-17 -56h-325v-34v-18.5t1 -17.5h303l-17 -56h-279q9 -49 29.5 -88.5t53 -68t76.5 -44 t100 -15.5q38 0 58 5.5t27 10.5l20 23v103h64v-153q-17 -12 -41 -19.5t-50 -12.5t-53 -7t-50 -2q-150 0 -237.5 66t-109.5 202h-95l17 56h72q-2 9 -2 18.5v20.5v15.5t2 15.5h-89z" />
<glyph unicode="&#x2122;" horiz-adv-x="1124" d="M351 325h-213v42h59v295h-95v-97h-50v135h388v-135h-50v97h-95v-295h56v-42zM647 325h-163v42h55v283h-55v50h194l94 -172h3l101 172h182v-50h-55v-283h55v-42h-198v42h51v286h-6l-131 -218h-41l-129 218h-7v-286h50v-42z" />
<glyph unicode="&#xe000;" horiz-adv-x="525" d="M0 525h525v-525h-525v525z" />
<glyph unicode="&#xf408;" horiz-adv-x="434" d="M76 761l-16 20l142 133h31l141 -130l-18 -22l-142 56z" />
<glyph unicode="&#xf40c;" horiz-adv-x="374" d="M60 788q0 41 38 63.5t93 22.5q22 0 44 -5t39.5 -15t28.5 -25.5t11 -37.5q0 -20 -10 -35t-27.5 -26t-40 -16.5t-46.5 -5.5q-58 0 -94 21t-36 59zM135 788q0 -17 14.5 -27.5t34.5 -10.5q29 0 42 10t13 27q0 26 -15 35.5t-36 9.5q-27 0 -40 -12.5t-13 -31.5z" />
<glyph unicode="&#xf40d;" horiz-adv-x="478" d="M418 843q-36 -38 -65.5 -53t-58.5 -15q-21 0 -39.5 6.5t-36.5 14t-35 14t-35 6.5q-14 0 -31 -6.5t-35 -23.5l-22 36q43 42 76 57t62 15q21 0 39 -6t35 -13.5t33.5 -13.5t34.5 -6q14 0 30.5 5t33.5 19z" />
<glyph unicode="&#xf6c9;" horiz-adv-x="389" d="M206 914l123 -33v-40l-256 -72l-13 24z" />
<glyph unicode="&#xf6cb;" horiz-adv-x="504" d="M60 796q0 29 18.5 43.5t46.5 14.5q29 0 48 -14.5t19 -43.5q0 -26 -19 -40t-48 -14q-28 0 -46.5 14t-18.5 40zM312 796q0 29 19 43.5t46 14.5q29 0 48 -14.5t19 -43.5q0 -26 -19 -40t-48 -14q-27 0 -46 14t-19 40z" />
<glyph unicode="&#xf6ce;" horiz-adv-x="389" d="M329 793l-13 -24l-256 72v40l123 33z" />
<glyph horiz-adv-x="342" d="M0 0z" />
</font>
</defs>
</svg>
